<?xml version="1.0" standalone="no"?>
<!DOCTYPE svg PUBLIC "-//W3C//DTD SVG 1.1//EN" "http://www.w3.org/Graphics/SVG/1.1/DTD/svg11.dtd" >
<svg xmlns="http://www.w3.org/2000/svg">
<metadata>Generated by IcoMoon</metadata>
<defs>
<font id="ispfont" horiz-adv-x="1024">
<font-face units-per-em="1024" ascent="960" descent="-64" />
<missing-glyph horiz-adv-x="1024" />
<glyph unicode="&#x20;" horiz-adv-x="512" d="" />
<glyph unicode="&#xe000;" glyph-name="navbar-menu" d="M0 206v-66h1024v66zM0 486v-64h1024v64zM0 776v-64h1024v64z" />
<glyph unicode="&#xe001;" glyph-name="navbar-operazioni" d="M672 762c172 0 312-140 312-312s-140-312-312-312c-172 0-312 140-312 312s138 312 312 312M672 802c-194 0-352-158-352-352s158-352 352-352c194 0 352 158 352 352s-158 352-352 352zM818 304c0 10-10 22-22 22-6 0-10-2-14-8-26-18-58-30-92-30-70 0-126 44-150 104h134c12 0 20 10 20 22s-10 20-20 20h-144c0 4 0 8 0 14 0 4 0 8 0 14h176c12 0 22 10 22 20 0 14-12 22-22 22h-166c24 60 82 104 150 104 34 0 68-12 94-30 4-6 8-8 14-8 10 0 22 10 22 22 0 6-2 12-6 14 0 0 0 0-2 0 0 0 0 0-4 0-32 24-70 38-118 38-92 0-168-60-192-144h-42c-12 0-20-12-20-22 0-12 10-20 20-20h34c0-4 0-8 0-14 0-4 0-8 0-14h-34c-12 0-20-10-20-20 0-14 10-22 20-22h42c24-84 100-144 192-144 46 0 84 14 116 38l2 2c8 10 10 14 10 20zM282 540h-188c-10 0-20 8-20 20 0 10 8 22 20 22h188c10 0 22-10 22-22s-12-20-22-20zM282 306h-188c-10 0-20 8-20 22 0 10 8 20 20 20h188c10 0 22-8 22-20 0-14-12-22-22-22zM250 420h-230c-10 0-20 8-20 20s8 20 20 20h230c10 0 20-8 20-20s-10-20-20-20z" />
<glyph unicode="&#xe002;" glyph-name="navbar-search" d="M746 592c0 188-142 368-378 368-216 0-368-152-368-368 0-198 132-378 368-378 96 0 186 34 256 94l362-372c20 0 38 18 38 38l-372 362c58 64 94 150 94 256zM670 592c0-198-160-302-302-302-198 0-292 160-292 302 0 170 122 292 292 292 198 0 302-150 302-292z" />
<glyph unicode="&#xe003;" glyph-name="navbar-gestore-01" d="M570 768c12-6 16-18 28-22 10-4 26-4 40-16 24-18 32-66 32-90 0-46-20-102-20-118 0-22 16-20 16-38 0-2-4-18-8-28s-26-12-28-30c-4-22-12-48-26-70-6-10-16-16-20-28-2-10-2-32-2-36s0-42 4-64c12-40 72-70 104-82 34-12 74-28 112-50-118-82-186-104-290-104-100 0-194 26-292 102 74 48 212 62 222 154v80c-28 30-46 66-50 98 0 8-16 18-20 22-8 6-14 28-14 36 0 16 14 20 16 40l-16 82v56c12 100 86 116 152 116 24 0 28 6 60-10zM974 450c0-2-6-60-10-90-4-26-14-52-24-80-8-20-16-40-28-58-16-24-58-90-70-90-2 0-14 10-20 14-22 12-48 24-68 32-40 18-118 36-118 80v52c14 18 26 40 32 58 6 10 6 26 12 34 6 12 18 16 22 26 6 6 18 44 18 56 0 30-14 34-14 46 0 4 14 52 16 78v62c-2 10-4 24-8 36-6 20-22 52-50 72-10 4-20 12-30 14-4 2-14 2-18 4-10 6-20 18-32 24-24 12-52 12-74 12-126 0-206-66-206-198 0-4 4-52 8-80 2-6 8-20 8-26 0-4-10-10-12-18-4-6-4-20-4-26 0-18 6-36 14-54 4-12 20-16 24-28 8-14 12-34 18-50 6-12 18-26 26-42 4-8 2-28 2-32s0-22-2-34c0-4-4-8-8-12-8-10-26-20-38-26-22-10-50-20-72-30-22-6-46-18-66-30-8-4-18-14-20-14-6 0-12 10-18 14-38 46-64 90-82 134-22 60-32 112-32 170 0 256 210 460 462 460s462-204 462-460zM1024 450c0 278-228 510-512 510-228 0-480-158-512-472v-76c0-36 20-106 28-136 90-242 312-340 490-340 42 0 86 8 128 22 264 86 378 298 378 492z" />
<glyph unicode="&#xe004;" glyph-name="navbar-gestore-02" d="M554 780c10-4 20-14 30-16 12-2 28 0 40-4 82-26 78-128 86-186l2-168c4-28 2-60 18-90-28-14-58-20-88-24-14-2-30 0-44-10-14-8-14-16-14-26 0-106 166-120 208-156 2-2 8-4 12-6-84-72-202-106-292-106-100 0-190 36-290 112 56 44 218 50 218 156 0 12-4 30-24 32-38 4-78 10-116 28 14 26 14 56 18 82l4 118c0 16 2 32 2 46 4 16 4 36 8 52 18 118 96 172 184 172 14 0 22 0 38-6zM974 450c0-4-2-42-6-64 0-12-4-28-8-44-6-30-16-58-30-88-8-14-18-34-30-52-2-4-52-72-58-72-2 0-34 22-52 30-52 26-120 38-150 78 34 6 148 20 148 78 0 12-10 14-14 28-8 18-6 36-10 54v168c-2 20-4 40-6 58-2 16-4 34-8 50-4 14-8 26-12 36-4 16-16 38-28 52-18 24-46 42-70 48-14 4-30 4-44 8-10 2-18 8-26 12-16 6-36 8-54 8-92 0-198-58-230-184-4-18-8-38-10-56-4-20-4-42-6-62l-2-116c-2-18-4-38-8-58 0-8-4-16-8-24-2-6-10-16-10-24 0-60 140-74 144-76-24-26-50-34-74-42-26-10-52-18-76-30-22-8-54-34-58-34s-10 12-16 16c-16 20-34 44-46 66-30 50-50 106-60 154-2 26-6 56-6 82 0 256 210 460 462 460s462-208 462-460zM1024 450c0 282-226 510-512 510-190 0-410-104-492-368-12-36-18-74-20-110v-66c0-18 12-78 14-90s6-26 10-38c84-246 310-352 492-352 72 0 140 14 214 48 28 12 58 26 88 50 154 126 206 278 206 416z" />
<glyph unicode="&#xe005;" glyph-name="navbar-gestore-03" d="M1024 448c0 282-228 512-512 512-234 0-478-158-512-476v-72c0-20 18-102 20-110 82-260 302-366 492-366 280 0 512 228 512 512zM528 440c-6 0-10 4-10 10v24h182v-24c0-6-4-10-12-10zM664 404v-370h-110v370zM256 440c-6 0-10 4-10 10v24h180v-24c0-6-4-10-10-10zM390 404v-370h-78c-10 4-20 10-30 16v354zM426 406c22 4 38 22 38 44v24h18v-24c0-22 14-40 36-44v-374h-92zM968 510h-196c-2 0-6 0-8-2h-38c-2 2-6 2-8 2h-218c-4 0-6 0-8-2h-38c-4 2-6 2-8 2h-220c-2 0-4 0-8-2h-4c-4 2-6 2-8 2-10 0-16 6-16 14v32c0 4 2 6 18 14l400 186 338-156c-6 18-10 32-20 48l-310 144c-4 2-10 2-16 0l-408-190c-16-8-38-18-38-46v-32c0-24 18-44 42-48 2-2 6-2 10-2h2v-24c0-22 16-40 38-44v-332c-118 84-194 222-194 374 0 256 208 460 460 460 232 0 426-174 456-398zM826 114v290h110v-134c-26-60-62-114-110-156zM708 32h-8v374c20 4 36 22 36 44v24h18v-24c0-22 16-40 36-44v-324c-26-20-54-36-82-50zM422-4h180c-30-6-60-8-90-8-32 0-62 2-90 8zM962 440h-160c-6 0-12 4-12 10v24h182v-24c0-6-4-10-10-10z" />
<glyph unicode="&#xe006;" glyph-name="navbar-gestore-04" d="M1024 448c0 284-228 512-512 512-236 0-488-166-512-490v-44c0-2 4-52 10-76 0-12 4-24 6-34 8-20 14-44 22-66 10-22 22-44 34-66 108-174 282-240 420-246 8 0 18-2 22-2s14 2 20 2c258 8 490 226 490 510zM924 246c-12 8-24 14-38 22-20 8-40 16-58 24-20 8-46 14-64 34-4 4-4 8-4 14v40c0 4 12 16 14 22 6 14 12 26 16 38 0 4 0 10 4 12 6 8 14 14 18 20 2 6 12 38 12 48 0 4-4 18-6 26 0 4-4 6-4 8 0 4 4 16 6 22 4 16 4 30 6 42 2 8 2 22 2 24 0 4-2 24-4 32-4 26-18 64-50 84-10 4-24 4-32 12-24 20-60 30-86 30-30 0-78-8-104-26-2-2-6-4-6-6-4 2-8 4-12 6-8 2-16 4-24 6l-2 4c-22 26-68 34-96 34-2 0-6 0-8 0-4 0-6 0-8 0-88 0-182-50-186-172v-28c0-14 8-58 14-84-10-12-12-30-12-42 0 0 0-2 0-4-2-2-2-4-2-6 0-18 12-62 40-74 6-24 18-60 36-80v-62c0-2 0-2 0-4 0 0-2-2-2-4-46-42-96-46-144-70l-4-4c-26 36-46 78-62 126-8 22-20 80-20 112v54c22 282 248 430 458 430 254 0 458-204 458-458 0-72-16-142-46-202zM782 78c-6 18-16 36-26 48-8 8-14 12-18 16-8 10-22 20-34 28-30 16-64 30-92 42-20 6-40 16-58 26-6 4-18 8-22 18-4 6-8 12-12 16v46c24 18 40 64 46 90 24 16 34 52 34 70v0c2 4 2 8 2 12 0 8-4 28-12 40 10 36 16 72 16 106 0 28-4 64-22 96 4 2 8 4 14 6 8 4 40 10 56 10 18 0 18 4 42-8 8-4 14-14 24-18s30-6 42-24c10-16 14-40 14-56 0-28-16-84-16-92 0-4 0-8 2-12 2-6 10-14 10-18 0-6-4-18-8-24-8-6-18-12-18-18-2-6-4-12-4-16-4-14-10-28-16-38-4-8-12-12-14-18-4-4-4-10-4-14v-46c0-64 44-80 112-108 18-6 50-20 76-40-30-46-68-86-114-120zM552 598c-2-20-10-52-14-66 0-2 0-4-2-6 0-2 0-2 0-2v0-2c0-6 2-10 12-24 2-2 2-6 2-10 0-2 0-4-2-8 0-8-4-20-8-24s-8-4-12-8c-6-2-10-10-10-16-8-24-14-48-30-70-12-2-14-8-20-22v-66c-2-2-2-4-2-8s2-10 4-14c4-8 8-14 14-16 10-18 28-34 44-44 38-18 78-34 118-52 12-4 24-12 34-18 8-4 14-10 20-16 6-8 18-14 30-36 2-4 6-12 8-20-68-38-146-60-228-60-114 0-248 48-342 154 22 10 42 18 60 24 22 8 112 46 112 90 0 4-2 6-2 8 2 16 2 34 2 46 0 4 0 12 0 20 0 2 0 4 0 8 0 16-18 26-26 42-4 12-12 24-14 36-2 6-2 14-4 18-4 14-10 20-22 20-10 6-10 18-12 28 0 6 0 12 2 16 2 2 2 4 2 4 4 4 8 8 10 14 0 2 2 4 2 6s0 4-2 6c0 18-14 54-14 102 0 44 6 94 70 122 24 10 50 10 74 14 14-2 30-2 44-8 10-2 16-6 20-12 2-6 6-12 14-14 20-4 52-18 62-44 4-12 8-24 8-34v-42c0-6 0-10-2-16z" />
<glyph unicode="&#xe007;" glyph-name="menu-lamiasituazione" d="M758 816h40v-106l42-40v188h-124v-62l42-42zM1016 444l-490 510c-4 4-8 6-14 6s-10-2-14-6l-490-510c-8-8-8-20 0-28s20-8 28 0l66 66v-546h820v546l66-66c4-4 8-6 14-6 4 0 10 2 14 6 8 8 8 20 0 28zM614-24h-204v390h204zM880-24h-224v432h-288v-432h-224v550l368 382 368-382z" />
<glyph unicode="&#xe008;" glyph-name="menu-conti" d="M872 722h-718c-34 0-62-12-84-30 16 28 50 52 120 80 4 2 426 118 498 136 42 12 68 14 78 4 8-6 12-24 12-60v-80h42v80c0 42-4 76-30 94-20 16-54 18-112 2-74-18-496-136-502-138-142-52-164-104-164-206v-536c0-72 60-132 132-132h736c74 0 132 60 134 134v516c0 70-68 136-142 136zM970 68c0-50-40-92-90-92h-736c-52 0-90 42-92 90v478h2v52c8 38 46 84 98 84h718c52 0 100-48 100-96zM894 328c0-34-26-60-58-60-34 0-60 26-60 60 0 32 26 58 60 58 32 0 58-26 58-58z" />
<glyph unicode="&#xe009;" glyph-name="menu-carte" d="M892 804h-758c-82 0-134-78-134-132v-458c0-68 56-122 122-122h780c66 0 122 54 124 124v460c0 66-64 128-134 128zM134 764h756c48 0 94-44 94-88v-28h-944v24c0 36 38 92 94 92zM902 134h-780c-44 0-82 38-82 82v320h944v-320c0-44-38-82-82-82z" />
<glyph unicode="&#xe00a;" glyph-name="menu-borsellinidigitali" d="M632 390v36c0 26-22 48-48 48h-70c8 12 14 28 16 42 0 38-30 70-70 70-30 0-54-20-64-44-10 26-36 44-66 44-40 0-70-32-70-70 0-16 4-32 14-42h-66c-26 0-48-22-48-48v-36c0-10 0-18-2-22-92-96-142-196-142-292 0-130 64-140 140-140h474c4 0 8 0 14 0 64 0 132 10 132 140 0 96-46 194-140 290-2 2-4 12-4 24zM460 544c16 0 28-12 30-28 0-16-12-30-30-30-16 0-28 14-28 30s12 28 28 28zM330 544c16 0 28-12 28-28s-12-30-28-30c-16 0-28 14-28 30s12 28 28 28zM396 492c2-8 4-12 8-16h-16c2 2 6 8 8 16zM200 390v36c0 4 4 8 8 8h374c4 0 8-4 8-8v-36c0-4 0-6 0-8h-390c0 4 0 6 0 8zM642-24c-6 0-8 0-12 0h-474c-58 0-96 0-96 98 0 86 42 176 128 264h420c84-88 130-178 130-264-4-90-40-98-96-98zM526 638c88 0 160-72 160-160 0-12 8-20 20-20 10 0 22 10 22 20 0 112-92 202-202 202-12 0-20-8-20-22 0-12 8-20 20-20zM508 812c-12 0-20-8-20-20s8-20 20-20c172 0 312-140 312-312 0-12 8-20 20-20s20 8 20 20c0 194-158 352-352 352zM488 960c-12 0-22-8-22-20s10-20 22-20c264 0 478-216 478-478 0-12 8-20 22-20 12 0 20 8 20 20 0 284-234 518-520 518z" />
<glyph unicode="&#xe00b;" glyph-name="menu-gestionespese" d="M574-64c-248 0-452 202-452 450 0 22 2 44 4 64l42-6c-2-18-4-40-4-58 0-224 184-410 410-410 224 0 410 186 410 410 0 226-186 410-410 410-18 0-38-2-56-4l-6 42c20 2 40 4 62 4 248 0 450-204 450-452s-202-450-450-450zM472 488h-472v22c0 248 202 450 450 450h22zM40 530h390v390c-208-12-378-182-390-390z" />
<glyph unicode="&#xe00c;" glyph-name="menu-finanziamenti" d="M572 238l48 48c4 4 10 4 14 0s4-10 0-14l-48-50 38-38 50 48c4 6 10 6 14 0 4-4 4-10 0-14l-50-48 44-44 50 50c4 4 10 4 14 0s4-10 0-14l-50-50 52-52 98 100c4 4 10 4 14 0s4-12 0-16l-102-96 62-60 154 156-272 274 28 26 272-272c14-14 14-40 0-54l-158-158c-14-14-40-14-54 0l-270 276 26 26zM200 922l-156-156 46-48 54 54c6 4 12 4 16 0s4-10 0-14l-54-54 38-38 52 52c4 4 10 4 14 0 6-4 6-10 0-14l-52-54 42-42 54 52c4 6 10 6 14 0 4-4 4-10 0-14l-52-52 42-44 98 98c4 4 10 4 12 0 4-4 4-10 0-14l-98-98 62-62 54 54c4 4 10 4 14 0s4-10 0-12l-54-54 10-10-28-24-312 310c-14 16-14 40 0 54l156 158c14 14 38 14 54 0l310-312-24-28zM2-34c92 204 100 212 104 216l758 760c16 16 46 16 62 0l86-84c16-16 16-46 0-62l-760-762c-4-4-12-12-224-96-8-4-18-2-24 4-4 6-6 16-2 24zM980 824l-82 84-96-94 84-84zM854 700l-84 84-618-618 84-84zM200 56l-74 74c-14-28-36-78-60-130 52 22 104 42 134 56z" />
<glyph unicode="&#xe00d;" glyph-name="menu-risparmioeprevidenza" d="M666-32h-308v578h310zM400 10h226v496h-226zM310-32h-310v332h310zM40 10h228v250h-228zM1024-32h-310v870h310zM756 10h228v786h-228zM444 684c-12 0-20 8-20 20v180h-180c-12 0-20 8-20 20s8 22 20 22h220v-222c0-10-8-20-20-20zM20 460c-6 0-10 2-14 6-8 8-8 20 0 30l402 402c8 8 20 8 28 0s8-20 0-28l-402-404c-4-4-8-6-14-6z" />
<glyph unicode="&#xe00e;" glyph-name="menu-assicurazioni" d="M532 892v38c0 10-10 20-20 20s-20-8-20-20v-36c-262-10-476-192-492-426h52c20 48 78 80 142 80 66 0 124-32 144-80h38c20 40 64 70 116 78v-504c0-28-24-50-52-50s-50 22-50 48h-42c0-50 44-94 94-94 52 0 94 44 94 94-2 4-2 6-4 8v498c54-6 98-36 120-78h38c20 48 80 80 144 80 66 0 122-32 142-80h48c-16 234-230 416-492 424zM830 588c-68 0-128-30-164-74-36 42-90 70-156 72-64-2-120-30-156-72-34 44-96 74-164 74-52 0-104-20-138-50 54 180 238 316 460 316s406-132 456-312c-34 28-84 46-138 46z" />
<glyph unicode="&#xe00f;" glyph-name="menu-ilmioprofilo" d="M30 448c0 266 216 482 482 482s482-216 482-482c0-266-216-482-482-482s-482 216-482 482zM0 448c0-282 230-512 512-512s512 230 512 512c0 282-230 512-512 512s-512-230-512-512zM742 214c-4 70-58 92-102 110-26 10-50 20-56 36-2 14-2 24-2 36v4c10 12 22 34 24 54 8 4 18 14 22 40 2 12-2 22-8 28 8 24 20 82-2 120-10 16-24 26-44 30-10 14-30 22-58 22-42-2-72-14-90-38-22-30-26-74-12-134-6-6-8-16-8-28 4-26 14-36 22-40 4-20 14-42 24-54v-4c0-12 0-22 0-36-8-16-30-26-56-36-44-18-100-40-104-110v-12h450zM316 226c8 46 48 62 88 76 30 14 60 24 68 52l2 2c0 16 0 28 0 40v18l-6 2c-4 4-18 28-20 48v10h-10c-2 0-6 4-10 22 0 10 4 14 4 14l8 4-2 8c-14 54-12 94 6 120 14 18 38 28 72 28 22 0 36-4 42-14l2-4 6-2c14-2 26-8 32-20 18-28 8-80 0-108l-4-8 8-4c0 0 4-4 4-14-2-18-8-22-10-22h-10v-10c-2-22-16-44-20-48l-6-2v-18c0-12 0-24 2-40v-2c10-28 38-38 70-52 38-14 78-30 86-76z" />
<glyph unicode="&#xe010;" glyph-name="menu-lemiebanche" d="M962 562v30h4c32 0 58 24 58 54v38c0 32-24 42-46 52l-456 222c-6 2-12 2-18 0l-458-220c-22-10-46-20-46-52v-38c0-32 26-56 58-56h4v-30c0-24 18-44 40-50v-432h-58c-24 0-44-22-44-46v-54c0-24 20-44 44-44h936c24 0 44 20 42 46v54c0 22-18 44-44 44h-56v432c22 6 40 26 40 50zM922 562c0-6-6-12-12-12h-180c-8 0-14 6-14 12v30h206zM614 80v432c22 6 42 26 42 50v30h20v-30c0-24 18-44 40-50v-432zM308 512c22 6 40 26 40 50v30h20v-30c0-24 20-44 42-50v-432h-102zM450 510h124v-430h-124zM602 550h-180c-6 0-12 6-12 12v30h204v-30c0-6-6-12-12-12zM40 648v38c0 4 0 6 24 14l448 216 446-214c22-10 22-12 22-16v-38c0-10-6-16-16-16h-906c-8 0-18 6-18 16zM308 592v-30c0-6-6-12-14-12h-180c-6 0-12 6-12 12v30zM144 510h122v-430h-122zM980 34v-54c0 0 0-4-2-4h-934c0 0-4 4-4 6v54l4 2v-2h934c0 0 2 0 2-2zM758 80v430h122v-430z" />
<glyph unicode="&#xe011;" glyph-name="menu-perme" d="M1024 704h-240c64 26 110 78 110 150 0 68-42 106-112 106-88 0-130-72-168-138-30-52-56-98-102-98s-72 46-102 98c-38 66-78 138-168 138-72 0-112-38-116-106 0-72 50-124 112-150h-238v-234h44v-534h936v534h44zM652 802c34 60 66 118 132 118 48 0 72-24 72-66 0-80-88-130-172-130h-86c18 24 34 52 54 78zM170 854c0 42 22 66 72 66 66 0 98-58 132-118 18-28 34-54 54-78h-86c-84 0-172 50-172 130zM40 512v152h346v-152zM84-24v494h302v-494zM426-24v688h172v-688zM940-24h-302c0 50 0 286 0 494h302zM984 512h-346c0 56 0 136 0 152h346z" />
<glyph unicode="&#xe012;" glyph-name="menu-esci" d="M758 212c4-4 8-6 14-6 4 0 10 2 14 6l236 236-236 236c-8 8-20 8-28 0s-8-20 0-30l184-186h-598c-12 0-20-8-20-20s8-20 20-20h598l-184-186c-8-10-8-22 0-30zM770 4c0-12-10-20-20-20h-688c-12 0-22 10-22 20v890c0 12 12 20 22 20h688c12 0 20-10 20-20v-122l42-40v162c0 36-30 62-62 62h-688c-36 0-62-28-62-62v-892c0-36 28-62 62-62h688c34 0 58 26 62 62v162l-42-40z" />
<glyph unicode="&#xe013;" glyph-name="menuops-lamiarubrica" d="M922 888h-328c-34 0-64-16-82-40-18 24-48 40-82 40h-328c-56 0-102-44-102-102v-594c0-58 46-102 102-102h328c34 0 62-28 62-62 0-12 8-20 20-20s20 8 20 20c0 34 28 62 62 62h328c56 0 102 44 102 102v594c0 58-46 102-102 102zM492 110c-16 12-40 20-62 20h-328c-34 0-62 28-62 62v594c0 34 28 62 62 62h328c34 0 62-28 62-62zM984 192c0-34-28-62-62-62h-328c-22 0-46-8-62-20v676c0 34 28 62 62 62h328c34 0 62-28 62-62z" />
<glyph unicode="&#xe014;" glyph-name="menuops-operazioniricorrenti" d="M512-64c-282 0-512 230-512 512 0 138 54 264 150 362 8 8 20 8 28 0s8-20 0-28c-88-90-138-210-138-334 0-260 212-472 472-472s472 212 472 472c0 252-202 460-452 472v-164c0-14-8-22-20-22s-20 8-20 22v204h20c282 0 512-230 512-512s-230-512-512-512zM556 404c-26-24-64-24-88 0s-212 300-212 300c0 0 276-188 302-212 22-26 22-64-2-88z" />
<glyph unicode="&#xe015;" glyph-name="menuops-revoche" d="M348 486l-20-20 156-162-156-162 20-22 156 164 156-164 20 22-156 162 156 162-20 20-156-160zM602 960h-480v-1024h780v724zM614 890l218-216h-218zM860-24h-696v944h410v-288h286z" />
<glyph unicode="&#xe016;" glyph-name="footer-assistenza" d="M918 570c-6 18-20 32-40 38-18 186-176 332-366 332s-348-146-366-332c-20-6-34-20-40-38-60-12-106-84-106-174 0-88 46-160 106-172 8-24 30-42 58-42 34 0 62 28 62 62v306c0 26-16 48-40 58 18 164 158 290 326 290s308-126 326-290c-24-10-40-32-40-58v-306c0-28 18-50 42-58-8-82-58-128-144-128h-64c-10 24-32 42-58 42h-102c-34 0-62-28-62-62s28-62 62-62h102c26 0 48 18 58 42h64c108 0 178 64 184 168 18 6 32 20 38 38 60 12 106 84 106 172 0 90-46 162-106 174zM102 268c-34 16-62 68-62 128 0 62 28 114 62 130zM184 244c0-12-8-22-20-22s-20 10-20 22v306c0 12 8 20 20 20s20-8 20-20zM574 18h-102c-12 0-22 10-22 20 0 12 10 20 22 20h102c10 0 20-8 20-20 0-10-10-20-20-20zM880 244c0-12-8-22-20-22s-20 10-20 22v306c0 12 8 20 20 20s20-8 20-20zM922 268v258c34-16 62-68 62-130 0-60-28-112-62-128z" />
<glyph unicode="&#xe017;" glyph-name="footer-carta" d="M892 804h-758c-82 0-134-78-134-132v-458c0-68 56-122 122-122h780c66 0 122 54 124 124v460c0 66-64 128-134 128zM134 764h756c48 0 94-44 94-88v-28h-944v24c0 36 38 92 94 92zM902 134h-780c-44 0-82 38-82 82v320h944v-320c0-44-38-82-82-82z" />
<glyph unicode="&#xe018;" glyph-name="servizio-ricordamidi" d="M266 674h-246c-12 0-20 8-20 20v246c0 12 8 20 20 20h246c12 0 20-8 20-20v-246c0-12-8-20-20-20zM40 714h206v206h-206zM410 838h614v-42h-614zM136 748l-88 72 28 34 56-50 78 88 30-28zM266 304h-246c-12 0-20 8-20 22v244c0 14 8 22 20 22h246c12 0 20-8 20-22v-244c0-14-8-22-20-22zM40 346h206v204h-206zM410 468h614v-40h-614zM136 378l-88 74 28 32 56-48 78 88 30-28zM266-64h-246c-12 0-20 8-20 20v246c0 12 8 20 20 20h246c12 0 20-8 20-20v-246c0-12-8-20-20-20zM40-24h206v206h-206zM410 100h614v-42h-614z" />
<glyph unicode="&#xe019;" glyph-name="servizio-vorrei" d="M1018 632c-4 4-10 8-16 8h-140c-12 0-20-8-20-20s8-20 20-20h110l-20-62h-118c-12 0-20-8-20-20s8-20 20-20h104l-20-60h-152c-12 0-20-8-20-20 0-14 8-22 20-22h138l-22-58h-196c-12 0-20-8-20-22 0-12 8-20 20-20h182l-22-66h-450c-28 0-34 16-44 52l-114 500c-8 30-26 64-76 68-6 12-18 22-32 22h-94c-20 0-36-16-36-36 0-22 16-38 36-38h90c12 0 20 4 26 10h2c28 0 36-8 44-36l118-496 2-6c8-32 20-82 84-82h38c-34-10-60-42-60-80 0-48 38-84 84-84 40 0 74 26 82 66h112c8-40 40-66 82-66 44 0 82 36 84 84 0 38-26 70-60 80h100c8 0 16 6 16 16l140 410c2 6 2 12-2 18zM464 66c-24 0-42 18-42 42s20 44 42 44c24 0 44-20 44-44s-20-42-44-42zM782 108c0-24-20-42-42-42-26 0-44 18-44 42s20 44 44 44c22 0 42-20 42-44zM660 130h-114c-8 30-28 50-54 58h222c-28-8-48-28-54-58zM514 422c18-12 34-24 46-34l12-10 12 10c12 10 26 22 44 34 70 46 174 116 174 232 0 74-60 136-134 136-38 0-72-14-96-38-28 24-60 38-96 38-74 0-136-62-136-136 0-116 104-186 174-232zM476 748c32 0 60-16 82-44l16-26 16 26c16 26 46 44 78 44 50 0 94-44 94-96 0-94-90-154-156-198-12-8-24-16-34-24-10 8-24 16-36 24-64 44-156 104-156 198 0 52 44 96 96 96z" />
<glyph unicode="&#xe01a;" glyph-name="servizio-archivio" d="M602 960h-480v-1024h780v724zM614 890l218-216h-218zM860-24h-696v944h410v-288h286z" />
<glyph unicode="&#xe01b;" glyph-name="servizio-avvisi" d="M0 816v-736h1024v736zM984 776v-52l-404-350c-30-26-58-28-68-28s-38 4-68 28l-404 350v52zM984 672v-450l-272 214zM312 438l-272-214v448zM40 120v52l302 238 76-66c38-36 78-40 94-40s56 4 94 40l76 66 302-238v-52z" />
<glyph unicode="&#xe01c;" glyph-name="ops-bonifico" d="M556 856c26 0 40 24 70 24 8 0 10 0 10-8 0-4 0-8-2-12-12-22-46-108-46-140v-34c-2-6-6-10-10-10-30-16-68-22-96-22-30 0-84 4-104 20-8 6-12 18-16 30-18 42-54 128-54 132 0 12 18 12 24 12 2 0 30-2 34-2 106 0 62 80 114 80 42 0 26-70 76-70zM552 888c-14 38-36 72-72 72-20 0-50-16-62-48-4-8-2-16-10-22-10-8-20-10-26-10h-60c-30 2-46-24-46-44 0-4 2-14 6-22 22-52 44-104 66-154 10-26 100-40 134-40 36 0 114 14 132 44 4 8 6 22 6 30-2 14 0 28 2 38 6 36 22 78 40 112 4 10 8 24 8 28 0 24-20 42-44 42-20 0-42-10-62-22-4-4-8-4-12-4zM634 136c0 10-8 18-20 18-6 0-8-2-12-6-24-16-52-28-84-28-64 0-116 40-136 96h120c12 0 20 10 20 20s-10 18-20 18h-130v26h160c12 0 20 10 20 20s-10 18-20 18h-150c20 56 74 96 136 96 32 0 62-12 86-28 2-4 6-6 12-6 10 0 18 8 18 20 0 4 0 10-4 12h-4c-30 22-66 36-108 36-84 0-154-56-176-134h-36c-12 0-20-8-20-18 0-12 10-20 20-20h30v-26h-30c-12 0-20-8-20-18 0-12 10-20 20-20h36c22-76 92-132 176-132 40 0 76 12 106 36h2c6 10 8 14 8 20zM726 522c134-86 204-206 204-320 0-178-100-216-306-232l-74-4-150 4c-102 12-270 8-300 164-2 14-6 42-6 46v44c2 14 4 28 6 40 4 20 10 42 20 62 8 18 18 38 28 56 16 24 40 56 66 80 18 18 38 32 56 46 4 2 72 44 86 44 2 0 26-14 40-18 24-10 56-14 84-14 36 0 72 4 108 18 8 2 18 6 24 12 8 4 16 14 20 14 12 0 86-38 94-42zM708 568c-6 4-64 28-78 28-2 0-8 0-10-2-14-8-30-20-40-24-34-12-66-16-100-16-28 0-42-2-72 10-18 6-48 22-52 22-18 0-100-48-100-50-20-12-40-28-58-44-50-46-80-92-102-140-8-16-18-42-22-60-8-24-10-50-12-76v-28c0-2 4-40 6-60 34-176 224-182 336-192h214c4 0 72 8 108 12 184 26 236 126 236 256 0 58-20 122-54 180-42 74-134 154-200 184z" />
<glyph unicode="&#xe01d;" glyph-name="ops-c-bonifico-n" d="M30 448c0 266 216 482 482 482s482-216 482-482c0-266-216-482-482-482s-482 216-482 482zM0 448c0-282 230-512 512-512s512 230 512 512c0 282-230 512-512 512s-512-230-512-512zM532 644c14 0 20 12 34 12 4 0 6 0 6-4 0-2 0-4-2-6-6-10-22-52-22-68v-16c0-2-2-4-4-4-14-8-32-12-46-12s-40 2-50 10c-4 4-6 10-8 14-8 22-26 62-26 64 0 6 8 6 12 6 0 0 14 0 16 0 52 0 30 38 54 38 22 0 14-34 36-34zM532 660c-8 18-18 34-36 34-10 0-24-8-28-24-2-2-2-6-6-10s-10-4-12-4h-30c-14 0-22-12-22-22 0-2 2-6 4-10 10-26 20-50 30-74 6-12 48-20 66-20s54 8 62 22c4 4 4 10 4 14 0 6 0 14 2 18 2 18 10 38 18 54 2 4 4 12 4 14 0 12-10 20-22 20-10 0-20-6-30-12-2 0-4 0-4 0zM614 484c64-42 98-100 98-154 0-86-48-104-146-112l-36-2-72 2c-48 6-130 4-144 80-2 6-2 20-2 22v20c0 8 0 14 2 20 2 10 6 20 10 30 4 8 8 18 14 26 6 12 18 28 32 38 8 10 16 16 26 22 2 2 34 22 40 22 2 0 14-6 20-8 12-6 28-8 40-8 18 0 36 2 52 10 4 0 8 2 12 4s8 8 10 8c6 0 42-18 44-20zM606 506c-2 2-30 14-38 14 0 0-4 0-4-2-6-4-14-10-20-12-16-6-32-8-46-8s-22 0-36 6c-8 2-24 10-24 10-10 0-48-22-50-24-8-6-18-12-26-22-24-20-40-44-50-66-4-8-8-20-10-28-4-12-4-26-6-38v-12c0-2 2-20 2-30 16-84 108-86 162-92h102c2 0 36 4 52 6 88 12 114 60 114 122 0 28-10 60-26 86-20 36-64 76-96 90zM570 298c0 4-4 10-8 10s-6-2-8-4c-10-8-24-14-40-14-30 0-54 20-64 46h58c4 0 8 6 8 10 0 6-4 10-8 10h-64v12h78c6 0 8 4 8 8 0 6-4 10-8 10h-72c10 26 36 46 64 46 16 0 30-6 42-14 2-2 4-2 6-2 4 0 8 4 8 8s0 6-2 6h-2c-14 12-30 18-52 18-40 0-72-28-84-64h-18c-4 0-8-4-8-10 0-4 4-8 8-8h16v-12h-16c-4 0-8-6-8-10 0-6 4-8 8-8h18c12-38 44-64 84-64 20 0 38 6 52 16v2c4 4 4 6 4 8z" />
<glyph unicode="&#xe01e;" glyph-name="ops-c-bonifico-s" d="M532 660c0 0 2 0 4 0 10 6 20 12 30 12 12 0 22-8 22-20 0-2-2-10-4-14-8-16-16-36-18-54-2-4-2-12-2-18 0-4 0-10-4-14-8-14-44-22-62-22s-60 8-66 20c-10 24-20 48-30 74-2 4-4 8-4 10 0 10 8 22 22 22h30c2 0 8 0 12 4s4 8 6 10c4 16 18 24 28 24 18 0 28-16 36-34zM606 506c32-14 76-54 96-90 16-26 26-58 26-86 0-62-26-110-114-122-16-2-50-6-52-6h-102c-54 6-146 8-162 92 0 10-2 28-2 30v12c2 12 2 26 6 38 2 8 6 20 10 28 10 22 26 46 50 66 8 10 18 16 26 22 2 2 40 24 50 24 0 0 16-8 24-10 14-6 22-6 36-6s30 2 46 8c6 2 14 8 20 12 0 2 4 2 4 2 8 0 36-12 38-14zM0 448c0-282 230-512 512-512s512 230 512 512c0 282-230 512-512 512s-512-230-512-512zM532 644c-22 0-14 34-36 34-24 0-2-38-54-38-2 0-16 0-16 0-4 0-12 0-12-6 0-2 18-42 26-64 2-4 4-10 8-14 10-8 36-10 50-10s32 4 46 12c2 0 4 2 4 4v16c0 16 16 58 22 68 2 2 2 4 2 6 0 4-2 4-6 4-14 0-20-12-34-12zM614 484c-2 2-38 20-44 20-2 0-6-6-10-8s-8-4-12-4c-16-8-34-10-52-10-12 0-28 2-40 8-6 2-18 8-20 8-6 0-38-20-40-22-10-6-18-12-26-22-14-10-26-26-32-38-6-8-10-18-14-26-4-10-8-20-10-30-2-6-2-12-2-20v-20c0-2 0-16 2-22 14-76 96-74 144-80l72-2 36 2c98 8 146 26 146 112 0 54-34 112-98 154zM570 298c0-2 0-4-4-8v-2c-14-10-32-16-52-16-40 0-72 26-84 64h-18c-4 0-8 2-8 8 0 4 4 10 8 10h16v12h-16c-4 0-8 4-8 8 0 6 4 10 8 10h18c12 36 44 64 84 64 22 0 38-6 52-18h2c2 0 2-2 2-6s-4-8-8-8c-2 0-4 0-6 2-12 8-26 14-42 14-28 0-54-20-64-46h72c4 0 8-4 8-10 0-4-2-8-8-8h-78v-12h64c4 0 8-4 8-10 0-4-4-10-8-10h-58c10-26 34-46 64-46 16 0 30 6 40 14 2 2 4 4 8 4s8-6 8-10z" />
<glyph unicode="&#xe01f;" glyph-name="comuni-aggiungi" d="M1020 486h-476v478h-64v-478h-476v-62h476v-476h64v476h476z" />
<glyph unicode="&#xe020;" glyph-name="comuni-chiudi" d="M1024 900l-60 60-452-452-452 452-60-60 452-452-452-452 60-60 452 452 452-452 60 60-452 452z" />
<glyph unicode="&#xe021;" glyph-name="comuni-freccia-dx1" d="M258-18c42 44 86 88 128 136 110 110 218 226 328 340-28 30-58 60-86 90-22 24-46 48-70 72-96 102-198 206-296 310 0 2-6 14-6 18 0 16 14 22 22 22 22 0 34-26 56-46 14-14 30-30 44-46 24-24 46-50 70-72 102-110 208-220 312-328 2-2 8-16 8-20 0-2-2-12-6-16-24-28-50-54-76-80-22-22-46-48-68-70-106-114-212-230-322-340-8-6-12-6-18-6-12 0-22 10-22 22 0 4 0 10 2 14z" />
<glyph unicode="&#xe022;" glyph-name="comuni-freccia-sx1" d="M766 936c-42-46-86-90-128-136-110-112-218-228-328-342 28-30 58-60 86-90 22-22 46-48 70-72 96-102 198-204 296-310 0 0 6-12 6-18 0-16-14-22-22-22-22 0-34 28-56 46-14 16-30 30-44 46-24 24-46 50-70 72-102 110-208 220-312 328-2 4-8 16-8 20 0 2 2 14 6 18 24 26 50 54 76 78 22 24 46 48 68 72 106 112 212 228 322 338 8 8 12 6 18 6 12 0 22-8 22-22 0-4 0-8-2-12z" />
<glyph unicode="&#xe023;" glyph-name="comuni-preferiti-n" d="M816-40c-4 0-10 2-12 4l-292 184-292-184c-8-4-18-4-24 0s-10 16-8 24l82 336-262 218c-8 6-10 14-8 22s10 16 18 16l346 24 130 320c4 8 10 12 18 12s16-4 18-12l130-320 346-24c8 0 16-8 18-16s0-16-6-22l-266-220 82-336c2-10-2-18-8-24-2 0-6-2-10-2zM72 542l236-196c6-4 8-12 6-20l-74-300 260 164c6 4 14 4 22 0l260-164-74 300c-2 8 0 16 6 20l236 196-306 20c-10 0-16 6-20 12l-112 286-114-286c-2-8-10-12-20-12z" />
<glyph unicode="&#xe024;" glyph-name="comuni-preferiti-s" d="M816-40c-4 0-10 2-12 4l-292 184-292-184c-8-4-18-4-24 0s-10 16-8 24l82 336-262 218c-8 6-10 14-8 22s10 16 18 16l346 24 130 320c4 8 10 12 18 12s16-4 18-12l130-320 346-24c8 0 16-8 18-16s0-16-6-22l-266-220 82-336c2-10-2-18-8-24-2 0-6-2-10-2z" />
<glyph unicode="&#xe025;" glyph-name="comuni-c-alert-n" d="M482 190h60v62h-60zM482 334h60v372h-60zM0 448c0-282 230-512 512-512s512 230 512 512c0 282-230 512-512 512s-512-230-512-512zM40 448c0 260 212 472 472 472s472-212 472-472c0-260-212-472-472-472s-472 212-472 472z" />
<glyph unicode="&#xe026;" glyph-name="comuni-c-help-n" d="M546 272h-68c2-2 0-6 0-66 0-4 2-8 6-10h62c0 2-2 4 0 76zM650 580c0 78-58 124-132 124-44 0-106-20-128-78-4-12-10-34-10-38 0-8 38-12 42-14h16c4 54 40 74 78 74s74-20 74-68c0-64-108-144-108-204 4-42 2-44 0-46 56 0 60 2 62 2-22 86 106 152 106 248zM1024 448c0 278-226 512-512 512-240 0-490-172-512-488v-48c0-28 12-94 18-114 80-262 300-374 494-374 276 0 512 226 512 512zM984 448c0-266-218-472-472-472-268 0-472 218-472 472 0 262 210 472 472 472 266 0 472-216 472-472z" />
<glyph unicode="&#xe027;" glyph-name="comuni-c-help-s" d="M546 272c-2-72 0-74 0-76h-62c-4 2-6 6-6 10 0 60 2 64 0 66zM650 580c0-96-128-162-106-248-2 0-6-2-62-2 2 2 4 4 0 46 0 60 108 140 108 204 0 48-36 68-74 68s-74-20-78-74h-16c-4 2-42 6-42 14 0 4 6 26 10 38 22 58 84 78 128 78 74 0 132-46 132-124zM1024 448c0 278-226 512-512 512-240 0-490-172-512-488v-48c0-28 12-94 18-114 80-262 300-374 494-374 276 0 512 226 512 512z" />
<glyph unicode="&#xe028;" glyph-name="comuni-c-info-n" d="M482 706v-60h60v60zM482 564v-370h60v370zM1024 448c0 278-226 512-512 512-240 0-490-172-512-488v-48c0-28 12-94 18-114 80-262 300-374 494-374 276 0 512 226 512 512zM984 448c0-266-218-472-472-472-268 0-472 218-472 472 0 262 210 472 472 472 266 0 472-216 472-472z" />
<glyph unicode="&#xe029;" glyph-name="comuni-c-info-s" d="M482 706h60v-60h-60zM482 564h60v-370h-60zM1024 448c0 278-226 512-514 512-238 0-488-172-510-488v-48c0-28 12-94 18-114 80-262 300-374 492-374 278 0 514 226 514 512z" />
<glyph unicode="&#xe02a;" glyph-name="comuni-esito-ok" d="M18 448c0 274 220 494 494 494s494-220 494-494c0-274-220-494-494-494s-494 220-494 494zM0 448c0-282 230-512 512-512s512 230 512 512c0 282-230 512-512 512s-512-230-512-512zM796 692c0 12-10 16-18 16-6 0-12 0-14-4-98-154-192-314-288-470-48 44-210 198-224 198-8 0-16-4-16-16 0-16 98-102 110-112 28-26 56-54 86-80 20-18 30-36 48-36 2 0 10 4 12 4 84 134 166 270 246 404 4 4 58 82 58 96z" />
<glyph unicode="&#xe02b;" glyph-name="comuni-esito-ko" d="M18 448c0 274 220 494 494 494s494-220 494-494c0-274-220-494-494-494s-494 220-494 494zM0 448c0-282 230-512 512-512s512 230 512 512c0 282-230 512-512 512s-512-230-512-512zM776 698c0 8-4 14-14 14-4 0-10-2-12-6-80-78-160-158-238-238l-162 162c-20 20-76 82-88 82-8 0-14-6-14-14 0-4 0-8 4-12 46-48 96-94 144-142 32-32 64-64 96-96l-94-94c-24-22-48-48-72-72-6-4-82-78-82-88 0-8 4-14 12-14 4 0 8 0 10 4 70 68 140 138 210 208 10 12 24 24 36 36 102-100 240-248 254-248 8 0 14 4 14 14 0 2-2 8-4 10-80 82-162 162-244 244 34 32 64 66 96 96 48 50 98 96 142 142 4 4 6 8 6 12z" />
<glyph unicode="&#xe02c;" glyph-name="ops-giroconto" d="M1010 396c-14 18-46 40-112 12-2 6-4 12-6 16-8 12-22 20-38 22-22 6-48 0-74-10-4 10-12 16-16 20-32 22-88 8-118-10-26-16-110-68-136-84-26 6-50 14-60 20-6 4-12 12-20 20-24 26-62 66-162 66-52 0-78-10-104-20l-12-4c-54-22-148-66-152-68-10-6 120-284 130-278l56 36c26 16 34 18 68 2l44-24c50-26 122-62 144-72 32-16 60-22 82-22 42 0 70 18 94 34 6 2 12 6 18 10 38 22 306 198 334 216 32 24 50 48 54 72 2 16-2 32-14 46zM46 354c32 16 86 36 122 50 4 2 8 4 12 6 24 10 44 18 88 18 82 0 108-30 132-54 8-10 18-20 28-26 14-8 44-18 76-26 2-2 6-2 8-2 34-10 72-16 98-16 24 0 62-4 62-30 0-8 0-30-62-30h-120c-52 0-122 18-122 18-12 4-24-2-26-14-4-10 2-22 14-24 2-2 76-22 134-22h120c48 0 74 14 88 30 2 0 2 0 4 0l186 124c44 26 76 32 90 14 4-6 4-12 4-14 0-8-8-22-36-44-28-18-296-194-332-216-6-2-12-6-18-10-36-22-68-42-136-10-22 12-92 48-144 74l-44 22c-48 24-74 18-108-4l-22-12zM568 350c34 22 82 50 100 62 22 14 60 20 72 12 2-2 2-6 2-10l-102-70c-10 0-18 2-30 2s-26 2-42 4zM846 406c6 0 8-2 10-4s4-6 2-16l-146-98c-2 12-10 26-26 38l86 58c0 0 0 0 0 0 30 20 58 26 74 22zM90 662l-78 14 116-146 150 100-74 14c12 80 48 128 112 154-86 2-184-26-226-136zM888 772l24 66-154-66 66-160 26 66c78-34 124-84 142-158 14 88 0 190-104 252zM464 588v-66h32v98h-26l-32-32zM574 712v-54h28v80h-22l-28-26zM614 718v0zM480 446c70 0 126 56 126 126 0 6 0 12-2 20 52 8 92 52 92 106 0 60-48 108-108 108s-108-48-108-108c-70 0-128-56-128-126s58-126 128-126zM480 662c50 0 90-40 90-90s-40-90-90-90c-50 0-90 40-90 90s40 90 90 90zM516 698c0 40 32 72 72 72s72-32 72-72c0-38-30-68-66-72-16 32-44 56-78 66 0 2 0 4 0 6z" />
<glyph unicode="&#xe02d;" glyph-name="ops-c-giroconto-n" d="M30 448c0 266 216 482 482 482s482-216 482-482c0-266-216-482-482-482s-482 216-482 482zM0 448c0-282 230-512 512-512s512 230 512 512c0 282-230 512-512 512s-512-230-512-512zM512 586c0 22 16 38 36 38s36-16 36-38c0-18-14-34-34-36-6 16-22 28-38 34zM492 568c26 0 46-20 46-46s-20-46-46-46c-24 0-46 20-46 46s22 46 46 46zM492 458c36 0 66 28 66 64 0 4 0 6-2 10 28 4 48 26 48 54 0 32-26 56-56 56s-56-24-56-56c-34 0-64-28-64-64s30-64 64-64zM542 594v-28h14v42h-12l-14-14zM484 530v-34h18v52h-14l-16-18zM700 624l14 34-80-34 34-82 14 34c40-18 62-42 72-80 8 44 0 96-54 128zM294 568l-40 6 60-74 76 52-38 6c6 42 24 68 58 80-44 2-94-14-116-70zM680 438c2-2 4-2 6-4 0 0 0-2 0-8l-74-50c-2 6-6 14-14 20l44 30c14 10 30 12 38 12zM538 408c18 12 42 26 52 32s30 10 36 6c0-2 0-4 0-6l-52-36c-4 2-8 2-14 2s-14 0-22 2zM272 410c16 8 44 18 62 26l6 2c12 6 22 10 44 10 42 0 56-14 68-28 4-4 10-10 14-12 8-6 22-10 38-14 2-2 4-2 6-2 18-4 36-6 50-6 12 0 32-4 32-16 0-4 0-16-32-16h-62c-26 0-62 10-62 10-6 2-12-2-14-8s2-10 8-12c2-2 38-12 68-12h62c24 0 38 8 44 16h2l96 64c22 12 38 16 46 6 2-2 2-6 2-6-2-4-4-12-20-24-14-8-150-98-168-110l-10-6c-18-10-34-20-70-4-10 6-46 24-72 38l-22 10c-26 14-38 10-56 0l-12-8zM764 432c-8 8-24 20-58 6 0 4-2 6-4 8-4 6-10 10-18 12-10 2-24 0-38-6-2 6-6 8-8 10-16 12-46 4-60-4s-56-36-70-44c-14 4-24 8-30 12-4 0-6 4-10 8-12 14-32 36-84 36-26 0-38-6-52-12l-6-2c-28-12-76-34-78-34-4-4 62-146 66-142l30 18c12 8 16 8 34 0l22-12c26-12 62-32 74-36 16-8 30-12 42-12 20 0 36 10 48 18l8 4c20 12 156 102 170 112 18 12 26 24 28 36 2 8 0 16-6 24z" />
<glyph unicode="&#xe02e;" glyph-name="ops-c-giroconto-s" d="M496 458c-36 0-66 28-66 64s30 64 66 64c0 32 24 56 54 56 32 0 56-24 56-56 0-28-20-50-46-54 0-4 0-6 0-10 0-36-30-64-64-64zM704 624c52-32 60-84 52-128-8 38-32 62-72 80l-12-34-34 82 78 34zM298 568c20 56 70 72 114 70-32-12-52-38-58-80l38-6-76-52-60 74zM766 432c6-8 8-16 6-24-2-12-10-24-26-36-16-10-152-100-172-112-2-2-4-4-8-4-12-8-26-18-48-18-12 0-26 4-42 12-12 4-48 24-74 36l-22 12c-16 8-22 8-34 0l-28-18c-6-4-72 138-66 142 2 0 50 22 76 34l6 2c14 6 26 12 54 12 50 0 70-22 82-36 4-4 8-8 10-8 6-4 18-8 30-12 14 8 56 36 70 44 16 8 44 16 60 4 2-2 6-4 8-10 14 6 28 8 38 6 8-2 16-6 20-12 0-2 2-4 2-8 34 14 52 2 58-6zM0 448c0-282 230-512 512-512s512 230 512 512c0 282-230 512-512 512s-512-230-512-512zM514 586c0 0 0-2 0-2 18-6 32-18 40-34 18 2 34 18 34 36 0 22-16 38-38 38-20 0-36-16-36-38zM564 598v0h-2zM544 594h-12l14 14h12v-42h-14zM496 568c-26 0-46-20-46-46s20-46 46-46c24 0 46 20 46 46s-22 46-46 46zM488 530h-14l16 18h14v-52h-16zM682 438c-8 0-22-2-36-12-2 0-2 0-2 0l-42-30c8-6 10-14 12-20l74 50c0 6 0 8 0 8-2 2-2 2-6 4zM540 408c8-2 16-2 22-2s10 0 16-2l52 36c0 2 0 4-2 6-6 4-24 0-36-6-10-6-34-20-52-32zM274 410l48-102 12 8c18 10 32 14 56 0l22-10c26-14 62-32 74-38 34-16 50-6 70 4 2 2 6 4 8 6 18 12 156 102 168 110 16 12 20 20 20 24 0 0 0 4-2 6-8 10-24 6-46-6l-96-64c0 0 0 0 0 0-8-8-22-16-46-16h-62c-28 0-66 10-68 12-6 2-8 6-6 12 0 6 6 10 12 8 0 0 36-10 62-10h62c32 0 32 12 32 16 0 12-20 16-32 16-14 0-32 2-50 6-2 0-4 0-4 2-16 4-32 8-38 14-6 2-10 8-16 12-12 14-24 28-66 28-24 0-32-4-46-10-2 0-4 0-6-2-18-8-44-18-62-26z" />
<glyph unicode="&#xe02f;" glyph-name="ops-bonificoafiscali" d="M442 838c-18 36-38 60-68 60-24 0-46-14-60-42-2-4-2-12-6-16-4-8-12-8-18-12h-48c-4 0-10 2-12 2-26-4-40-22-40-42 0-22 28-80 34-94 8-20 16-44 28-64 14-22 44-26 66-30 18-4 54-6 58-6 34 0 118 14 126 58v32c0 4 2 10 2 14 2 16 10 30 14 46 2 12 28 50 28 74 0 26-22 40-44 40-24 0-34-12-60-20zM440 798c18 0 46 20 56 20h10v-4c-4-6-42-96-42-122v-36c0-2-4-2-6-4-28-12-56-20-84-20-20 0-80 6-88 20-22 42-56 132-56 134 0 8 24 4 26 4h34c16 2 38 8 50 28 6 10 10 22 16 32 2 6 12 10 18 10 30 0 20-62 66-62zM504 424c-40 20-64 28-96 28-64 0-126-30-160-116h-34c-8 0-16-12-16-20 0-6 6-22 18-22h26v-10l-2-4h-26c-8 0-16-12-16-20 0-6 6-22 18-22h32c26-80 100-116 160-116 14 0 106 14 106 54 0 10-8 20-22 20s-42-28-84-28c-42 0-88 22-114 74h102c12 2 18 12 18 22 0 8-4 18-18 20h-112v14h140c12 0 18 18 18 22 0 6-8 22-20 20l-128 2c22 52 74 72 114 72 38 0 80-30 86-30 10 0 20 10 20 22 0 6-2 12-10 18zM540 574c-12 2-22 8-36 8s-30-16-44-22c-28-12-62-14-92-14-2 0-22 0-32 2-22 4-68 26-72 26-10 0-38-16-46-18-10-8-24-14-32-18-92-52-160-152-178-228-4-18-6-38-8-58v-38c0-2 2-16 2-24 2-50 36-122 104-152 6-2 16-8 24-10 16-6 34-10 50-14s36-8 52-8c20-2 44-6 64-8h208c2 0 66 8 98 12 12 2 26 4 36 8v-20h108v158l90 2v-160h92v194h96l-240 256-38-40c-4 6-8 12-12 16-54 74-132 130-194 150zM588 508c60-38 102-80 132-128l-178-188h96v-132c-44-14-92-18-132-22l-76-4-130 4c-16 2-36 4-50 6-64 8-158 14-198 102-4 12-8 28-10 40 0 8-2 22-2 24v46c4 88 80 212 190 262 10 4 30 14 34 14 2 0 26-12 40-16 32-10 42-10 72-10 34 0 64 2 102 18 10 4 28 18 32 18 2 0 54-20 78-34z" />
<glyph unicode="&#xe030;" glyph-name="ops-c-bonificoafiscali-n" d="M0 448c0-282 230-512 512-512s512 230 512 512c0 282-230 512-512 512s-512-230-512-512zM30 448c0 266 216 482 482 482s482-216 482-482c0-266-216-482-482-482s-482 216-482 482zM568 506c30-18 52-40 66-64l-88-96h48v-66c-22-8-48-8-68-12h-102c-10 2-18 4-26 4-32 4-80 6-100 52-2 6-4 14-6 20 0 4 0 10 0 12v24c2 44 40 106 96 132 4 2 14 6 16 6s14-6 22-8c16-4 20-4 34-4 18 0 34 0 54 10 4 0 12 8 14 8s28-10 40-18zM544 540c-6 0-12 4-18 4-8 0-16-8-22-12-14-6-32-6-46-6-2 0-12 0-18 0-10 2-34 14-36 14-4 0-18-8-22-10-6-2-12-6-16-8-46-26-82-78-90-116-2-8-4-20-4-28v-20c0-2 0-8 0-12 2-26 18-62 54-76 2-2 6-4 12-6 8-4 16-6 24-8 8 0 18-2 26-4 10 0 22-2 34-4h104c2 0 34 4 50 8 6 0 12 2 18 2v-10h54v80l46 2v-82h46v98h48l-122 130-18-20c-2 4-4 6-6 8-26 36-66 66-98 76zM526 464c-20 10-32 14-50 14-32 0-62-16-80-58h-16c-4 0-8-6-8-10s2-12 8-12h14v-6h-14c-4 0-8-6-8-10s2-12 8-12h16c14-40 52-58 80-58 8 0 54 6 54 26 0 6-4 12-10 12-8 0-22-16-44-16-20 0-44 12-56 38h52c4 0 8 6 8 12 0 2-2 8-8 10h-58v6h72c6 0 8 10 8 12s-4 10-10 10h-64c12 26 38 38 56 38 20 0 42-16 44-16 6 0 12 6 12 10s-2 6-6 10zM494 652c8 0 24 12 28 12h4v-2c-2-4-20-48-20-62v-18c0-2-2-2-4-2-14-6-28-10-42-10-10 0-40 2-44 10-12 20-28 66-28 66 0 6 12 2 12 2h18c8 2 20 6 26 16 2 4 4 10 8 16 0 2 4 4 8 4 14 0 10-32 34-32zM494 674c-8 18-18 30-34 30-12 0-24-8-30-22 0-2-2-6-2-8-2-4-8-4-10-6h-24c-2 0-6 2-6 2-14-2-20-12-20-22s14-40 16-48c6-10 8-22 14-32 8-12 24-12 34-14 8-4 28-4 30-4 16 0 58 6 62 30v16c0 2 2 4 2 6 2 8 4 16 6 24 2 6 14 26 14 38s-10 20-22 20c-12 0-16-6-30-10z" />
<glyph unicode="&#xe031;" glyph-name="ops-c-bonificoafiscali-s" d="M544 540c32-10 72-40 98-76 2-2 4-4 6-8l18 20 122-130h-48v-98h-46v82l-46-2v-80h-54v10c-6 0-12-2-18-2-16-4-48-8-50-8h-104c-12 2-24 4-34 4-8 2-18 4-26 4-8 2-16 4-24 8-6 2-10 4-12 6-36 14-52 50-54 76 0 4 0 10 0 12v20c0 8 2 20 4 28 8 38 44 90 90 116 4 2 10 6 16 8 4 2 18 10 22 10 2 0 26-12 36-14 6 0 16 0 18 0 14 0 32 0 46 6 6 4 14 12 22 12 6 0 12-4 18-4zM494 674c14 4 18 10 30 10s22-8 22-20c0-12-12-32-14-38-2-8-4-16-6-24 0-2-2-4-2-6v-16c-4-24-46-30-62-30-2 0-22 0-30 4-10 2-26 2-34 14-6 10-8 22-14 32-2 8-16 38-16 48s6 20 20 22c0 0 4-2 6-2h24c2 2 8 2 10 6 0 2 2 6 2 8 6 14 18 22 30 22 16 0 26-12 34-30zM0 448c0-282 230-512 512-512s512 230 512 512c0 282-230 512-512 512s-512-230-512-512zM568 506c-12 8-38 18-40 18s-10-8-14-8c-20-10-36-10-54-10-14 0-18 0-34 4-8 2-20 8-22 8s-12-4-16-6c-56-26-94-88-96-132v-24c0-2 0-8 0-12 2-6 4-14 6-20 20-46 68-48 100-52 8 0 16-2 26-4h102c20 4 46 4 68 12v66h-48l88 96c-14 24-36 46-66 64zM526 464c4-4 6-6 6-10s-6-10-12-10c-2 0-24 16-44 16-18 0-44-12-56-38h64c6 0 10-8 10-10s-2-12-8-12h-72v-6h58c6-2 8-8 8-10 0-6-4-12-8-12h-52c12-26 36-38 56-38 22 0 36 16 44 16 6 0 10-6 10-12 0-20-46-26-54-26-28 0-66 18-80 58h-16c-6 0-8 8-8 12s4 10 8 10h14v6h-14c-6 0-8 8-8 12s4 10 8 10h16c18 42 48 58 80 58 18 0 30-4 50-14zM494 652c-24 0-20 32-34 32-4 0-8-2-8-4-4-6-6-12-8-16-6-10-18-14-26-16h-18c0 0-12 4-12-2 0 0 16-46 28-66 4-8 34-10 44-10 14 0 28 4 42 10 2 0 4 0 4 2v18c0 14 18 58 20 62v2h-4c-4 0-20-12-28-12z" />
<glyph unicode="&#xe032;" glyph-name="comuni-importo" d="M1024 838c0 78-158 122-308 122-148 0-306-44-306-122 0-6 0-10 2-14-2-2-2-4-2-8v-122c0-4 0-8 2-14-2-2-2-4-2-6v-68c-34 4-68 6-102 6-150 0-308-44-308-124 0-4 0-8 2-12-2-2-2-4-2-8v-122c0-4 0-10 2-14-2-2-2-4-2-6v-124c0-4 0-8 2-12-2-4-2-6-2-8v-124c0-78 158-122 308-122 148 0 306 44 306 122v90c34-6 68-8 102-8 150 0 308 44 308 124v122c0 4 0 6-2 8 2 4 2 8 2 14v122c0 2 0 6-2 8 2 4 2 8 2 12v124c0 2 0 4-2 6 2 6 2 10 2 14v122c0 4 0 6-2 8 2 4 2 8 2 14zM574 58c0-32-104-82-266-82-164 0-268 50-268 82v80c58-38 164-58 268-58 102 0 208 20 266 58zM574 202c0-34-104-82-266-82-164 0-268 48-268 82v80c58-38 164-60 268-60 102 0 208 22 266 60zM574 346c0-34-104-82-266-82-164 0-268 48-268 82v80c58-40 164-60 268-60 102 0 208 20 266 60zM308 408c-164 0-268 48-268 80 0 34 104 82 268 82 162 0 266-48 266-82 0-32-104-80-266-80zM984 264c0-34-104-82-268-82-36 0-70 2-102 6 0 2 0 2-2 2 2 4 2 8 2 12v88c34-4 68-6 102-6 104 0 210 20 268 60zM984 408c0-34-104-82-268-82-36 0-70 2-102 6 0 0 0 0-2 0 2 4 2 10 2 14v88c34-4 68-6 102-6 104 0 210 20 268 58zM984 550c0-34-104-82-268-82-34 0-70 2-102 8 0 0 0 0-2 0 2 4 2 8 2 12 0 54-72 92-164 110v32c58-38 164-60 266-60 104 0 210 22 268 60zM984 694c0-34-104-82-268-82-162 0-266 48-266 82v80c58-40 164-60 266-60 104 0 210 20 268 60zM716 756c-162 0-266 48-266 82 0 32 104 82 266 82 164 0 268-50 268-82 0-34-104-82-268-82z" />
<glyph unicode="&#xe033;" glyph-name="comuni-achi" d="M1002-38c-8 146-124 192-218 228-56 22-106 42-120 76-2 26-2 48-2 72v12c22 22 44 68 52 110 16 10 38 30 44 84 4 26-4 46-14 58 14 48 42 172-8 252-20 32-52 54-92 62-22 28-66 44-124 44-88-2-154-28-192-80-46-62-56-154-26-276-12-14-18-34-16-60 6-54 28-76 44-84 8-42 32-88 54-110v-12c0-24 0-46-2-72-16-34-64-54-120-76-94-36-210-82-220-228l-2-26h964zM94-16c18 96 102 128 186 162 64 26 126 50 148 106l2 6c2 30 2 56 2 80v38l-14 6c-10 8-38 56-42 98l-2 20-20 2c-4 0-16 10-20 46-2 20 6 28 8 28l14 8-4 18c-30 112-24 198 14 248 30 40 82 60 154 62 46 0 78-12 90-30l4-10 12-2c32-4 56-18 70-42 36-60 16-170-2-224l-6-18 16-10c0 0 10-8 6-28-4-36-16-46-20-46l-20-2-2-20c-4-42-32-92-40-98l-14-6v-38c0-24 0-50 2-80l2-6c20-56 82-80 148-106 82-34 166-66 186-162z" />
<glyph unicode="&#xe034;" glyph-name="comuni-lamiarubrica" d="M922 888h-328c-34 0-64-16-82-40-18 24-48 40-82 40h-328c-56 0-102-44-102-102v-594c0-58 46-102 102-102h328c34 0 62-28 62-62 0-12 8-20 20-20s20 8 20 20c0 34 28 62 62 62h328c56 0 102 44 102 102v594c0 58-46 102-102 102zM492 110c-16 12-40 20-62 20h-328c-34 0-62 28-62 62v594c0 34 28 62 62 62h328c34 0 62-28 62-62zM984 192c0-34-28-62-62-62h-328c-22 0-46-8-62-20v676c0 34 28 62 62 62h328c34 0 62-28 62-62z" />
<glyph unicode="&#xe035;" glyph-name="comuni-calendario" d="M176 74h672v508h-672zM216 230h118v-118h-118zM374 230h118v-118h-118zM532 230h118v-118h-118zM690 230h118v-118h-118zM808 270h-118v116h118zM650 270h-118v116h118zM492 270h-118v116h118zM334 270h-118v116h118zM216 544h118v-118h-118zM374 544h118v-118h-118zM532 544h118v-118h-118zM690 544h118v-118h-118zM160 836c10-42 50-72 96-72 44 0 84 30 94 72h284c12-42 50-72 96-72s84 30 94 72h162v-136h-948v136zM354 874c-8 48-48 86-98 86s-92-38-98-86h-142c-6 2-14-8-16-12v-912c0-2 10-12 16-14h992c4 0 14 10 16 16v910c0 6-16 12-18 12h-178c-8 48-48 86-98 86s-92-38-98-86zM38 662h948v-686h-948z" />
<glyph unicode="&#xe036;" glyph-name="comuni-visualizzaricevuta" d="M514 874c0 34-16 64-56 64 32-18 50-70 52-104 0 14 4 34 4 40zM438 848c0 26-4 68 20 90h-4c-30 0-54 16-58-78s46-248 46-262c0-28-288-604-402-604-10 0-8 0-10 2 16 68 102 142 168 198-40-20-198-100-198-178 0-20 40-40 62-40 24 0 30 4 60 24 56 42 102 112 134 162 18 22 24 54 44 64 30 20 72 22 104 32 66 16 140 36 206 46 18 4 62 10 68 10 24 0 172-84 280-84 20 0 66 10 62 42-6-14-28-16-42-16-60 0-164 44-210 68 38 6 104 10 114 10 26 0 128-8 142-40v20c0 48-144 46-154 46-8 0-146-14-156-14-6 0-178 156-210 224-6 16-20 44-20 54s20 130 20 168c-14-38-20-86-36-118-20 58-30 116-30 174zM642 340c-106-16-228-46-330-92 54 94 112 204 148 296 30-62 106-160 182-204z" />
<glyph unicode="&#xe037;" glyph-name="comuni-share" d="M562 822c0-22 4-44 14-62l-328-226c-26 32-66 52-108 52-78 0-140-62-140-138s62-138 140-138c42 0 82 20 108 52l328-226c-10-18-14-40-14-62 0-76 62-138 138-138 78 0 140 62 140 138s-62 138-140 138c-26 0-50-6-72-20l-352 236c2 6 2 14 2 20s0 14-2 20l352 236c22-14 46-20 72-20 78 0 140 62 140 138s-62 138-140 138c-76 0-138-62-138-138zM628 822c0 40 32 72 72 72s72-32 72-72c0-40-32-72-72-72s-72 32-72 72zM628 74c0 40 32 72 72 72s72-32 72-72c0-40-32-72-72-72s-72 32-72 72zM66 448c0 40 34 72 74 72 38 0 72-32 72-72s-34-72-72-72c-40 0-74 32-74 72z" />
<glyph unicode="&#xe038;" glyph-name="comuni-euro" d="M874 772l28 130c-58 38-130 58-214 58-90 0-170-20-244-60-118-64-192-170-220-316h-82l-20-90h92c0-10 0-20 0-28 0-24 0-44 2-64h-74l-20-90h108c10-48 22-90 38-124 72-168 210-252 416-252 70 0 132 14 190 40v142c-48-42-116-64-202-64-60 0-118 16-170 46-74 42-120 112-140 212h416l18 90h-448c0 8 0 28 0 64 0 8 0 18 0 28h466l18 90h-472c4 36 20 74 44 114 26 38 54 68 86 90 52 36 116 54 194 54 70 0 134-24 190-70z" />
<glyph unicode="&#xe039;" glyph-name="comuni-c-aggiungiinformazioni-n" d="M836 522l-52 34-272-220-256 220-70-34 326-274zM0 448c0-282 230-512 512-512s512 230 512 512c0 282-230 512-512 512s-512-230-512-512zM40 448c0 260 212 472 472 472s472-212 472-472c0-260-212-472-472-472s-472 212-472 472z" />
<glyph unicode="&#xe03a;" glyph-name="comuni-c-aggiungiinformazioni-s" d="M836 522l-324-274-326 274 70 34 256-220 272 220zM0 448c0-282 230-512 512-512s512 230 512 512c0 282-230 512-512 512s-512-230-512-512z" />
<glyph unicode="&#xe03b;" glyph-name="comuni-orologio" d="M604 954c-20 0-54 6-58 6h-68c-28 0-90-14-108-18-18-6-38-12-54-20-18-8-38-18-54-26-150-80-240-244-256-364-2-22-4-48-6-70l2-50c30-310 278-476 510-476 280 0 512 228 512 512 0 64-12 128-38 192-4 14-12 28-20 44-70 148-244 254-362 270zM986 448c0-264-212-474-474-474-176 0-386 104-458 350-4 14-16 80-16 102v46c22 290 254 450 474 450 264 0 474-214 474-474zM414 450c0-34 28-60 60-60 2 0 6 0 8 0l114-170 32 22-110 168c10 10 16 24 16 40 0 10-4 18-8 26l220 256-30 26-218-254c-8 2-16 4-24 4-32 0-60-26-60-58z" />
<glyph unicode="&#xe03c;" glyph-name="comuni-check" d="M1024 892c0-12-80-134-90-152-148-238-298-486-454-730-6-12-14-12-24-12-24 0-62 46-80 60-126 108-252 220-372 330-6 6-4 6-4 16 2 14 10 28 28 28 20 0 124-100 128-102 98-88 196-174 296-262 172 280 344 562 518 838 6 10 16 12 24 14 14 0 30-10 30-28z" />
<glyph unicode="&#xe03d;" glyph-name="comuni-cancellacampo" d="M766 672l-226-226 226-224-30-30-226 226-226-226-28 30 226 224-226 226 30 30 224-226 228 226zM0 446c0-282 228-510 510-510s512 228 514 510c2 284-228 514-510 514-284 0-514-230-514-514z" />
<glyph unicode="&#xe03e;" glyph-name="ops-filiale" d="M962 562v30h4c32 0 58 24 58 54v38c0 32-24 42-46 52l-456 222c-6 2-12 2-18 0l-458-220c-22-10-46-20-46-52v-38c0-32 26-56 58-56h4v-30c0-24 18-44 40-50v-432h-58c-24 0-44-22-44-46v-54c0-24 20-44 44-44h936c24 0 44 20 42 46v54c0 22-18 44-44 44h-56v432c22 6 40 26 40 50zM922 562c0-6-6-12-12-12h-180c-8 0-14 6-14 12v30h206zM614 80v432c22 6 42 26 42 50v30h20v-30c0-24 18-44 40-50v-432zM308 512c22 6 40 26 40 50v30h20v-30c0-24 20-44 42-50v-432h-102zM450 510h124v-430h-124zM602 550h-180c-6 0-12 6-12 12v30h204v-30c0-6-6-12-12-12zM40 648v38c0 4 0 6 24 14l448 216 446-214c22-10 22-12 22-16v-38c0-10-6-16-16-16h-906c-8 0-18 6-18 16zM308 592v-30c0-6-6-12-14-12h-180c-6 0-12 6-12 12v30zM144 510h122v-430h-122zM980 34v-54c0 0 0-4-2-4h-934c0 0-4 4-4 6v54l4 2v-2h934c0 0 2 0 2-2zM758 80v430h122v-430z" />
<glyph unicode="&#xe03f;" glyph-name="azioni-c-ripeti-n" d="M40 448c0 260 212 472 472 472s472-212 472-472c0-260-212-472-472-472s-472 212-472 472zM0 448c0-282 230-512 512-512s512 230 512 512c0 282-230 512-512 512s-512-230-512-512zM650 512l-62 60h106c22 0 38-16 38-36v-264c0-20-16-38-38-38h-152v-36h152c42 0 76 32 76 74v264c0 40-34 74-76 74h-106l62 62-26 26-110-106 110-108zM372 382l64-62h-106c-22 0-38 18-38 38v264c0 20 16 38 38 38h152v36h-152c-42 0-76-32-76-74v-264c0-42 34-74 76-74h106l-64-62 28-28 108 108-108 108z" />
<glyph unicode="&#xe040;" glyph-name="domiciliazioni-archivioaddebiti" d="M0 448c0-282 230-512 512-512s512 230 512 512c0 282-230 512-512 512s-512-230-512-512zM40 448c0 260 212 472 472 472s472-212 472-472c0-260-212-472-472-472s-472 212-472 472zM712 548h-402v108c0 18 16 34 34 34h332c20 0 36-16 36-34zM712 372h-402v152h402zM712 240c0-18-16-34-36-34h-332c-18 0-34 16-34 34v108h402zM676 714h-332c-32 0-58-26-58-58v-416c0-32 26-58 58-58h332c32 0 58 26 58 58v416c0 32-26 58-58 58zM570 644c-8 0-12-6-12-12 0-12-6-12-12-12h-72c-6 0-12 0-12 12 0 6-4 12-10 12-8 0-12-6-12-12 0-22 14-36 34-36h72c20 0 36 14 36 36 0 6-6 12-12 12zM474 406h72c20 0 36 14 36 36 0 6-6 12-12 12-8 0-12-6-12-12 0-10-6-12-12-12h-72c-6 0-12 2-12 12 0 6-4 12-10 12-8 0-12-6-12-12 0-22 14-36 34-36zM474 240h72c20 0 36 16 36 36 0 8-6 12-12 12-8 0-12-4-12-12 0-10-6-12-12-12h-72c-6 0-12 2-12 12 0 8-4 12-10 12-8 0-12-4-12-12 0-22 14-36 34-36z" />
<glyph unicode="&#xe041;" glyph-name="doc-identita" d="M94 750c-8 4-16 6-24 10-6 2-12-6-6-10 8-6 16-12 24-16 8-2 16 10 6 16zM696 6c-2 8-4 16-6 22 0 4-4 4-4 0 2-8 2-18 4-26 2-10 0-16 8-22 4-8 14 0 10 8-6 6-10 10-12 18zM954 12c0 2-2 4-4 6-2 4-10 6-14 2-6-4-6-12-2-16 0 0 0-2 0-2 2-2 4-4 8-6 2-2 4 0 8 0 0 0 2 2 4 2 0 2 2 4 2 6 0 4 0 6-2 8zM664 144l-4-4c2 0 2 2 4 4zM952 40c2 20-12 34-24 46-8 8-14 8-22 8-2 0-2 0-4 0 4 12 6 22 8 34 0 30-10 60-18 90 0 2-2 4-2 4 0 2-2 4-2 4 0 2 0 2 0 4 0 0 0 0 0 0-2 14-4 28-8 42-2 16-6 32-10 46-10 28-16 56-22 84-4 12-8 26-10 40-4 30-10 60-22 88 0 4-2 8-4 12-4 4-6 10-8 14 0 2-2 4-2 6 0 0 0 0 0 2-4 6-10 14-14 20-4 4-8 8-10 10-8 10-16 20-24 28s-16 14-22 22l-4-2c-2 52-4 102-10 154-2 40-26 84-42 124 4 0 6 0 10 2 0 0 0 2 0 4 0 0 2 0 2 0 0 26-24 22-28 22-120 10-236 18-362 14-36 0-78-22-116-36 0 0 0 2-2 2-2 16-16-2-18-10-10-52-2-108 8-154 34-164 12-332 62-488 2-2 2-4 2-6-4-4 4-16 8-18 30-14 64-10 90-6 98 20 194-16 288 20 0 0 2 0 4 2 2-8 4-16 4-24 2-14 4-24 8-36 2-10 6-20 8-28l18-36c16-22 36-42 58-58-12 0-24 0-36-4-2 0-4 0-6-2 0 2 0 2 0 4-6 12-12 20-16 32-2 6-6 12-8 18l-16-16c8-14 14-32 24-44 0-2 2-2 2-2-6-6-14-12-16-20-4-6-10-12-10-20-4-12 8-24 14-34 2-6 4-14 6-20 0-4 0-6 2-8 0 0 2-2 2-2s0 0 0-2c2-8-2-16 8-24 8-8 22 6 14 16-4 2-8 8-8 10-2 4-2 6-2 8 2 8 0 16 0 22s0 16-2 22c-2 6-10 10-10 16 0 2 0 2 0 4 2 4 4 6 8 8 4 4 6 2 10 4 4 0 10 2 14 2 6 0 12-2 16-2 12 0 26-2 38-2 14-2 24 2 38 0 10-2 20 0 30 4 2 2 8 2 12 2 6 0 12 0 18 2 4 0 8 2 12 2 6 0 10 2 14 6 4 2 10 2 14 4 2 0 2 0 2 0 2 0 2 0 4 0s6-2 6-4c2 0 2 0 2 0 2-2 2-4 4-4 4-4 8-8 12-14s6-14 14-18c8-6 20 0 22 10zM722 352c0 0-2 0-2 2 0 0 2 0 2 2 0-2 0-4 0-4zM226 410c-2 0-6 4-4 6 2 0 6-4 4-6zM538 266c0 2 4 8 4 4 0-2-4-6-4-4zM598 278c-22-4-46-2-68-8-22-4-46 6-68 6-72-2-142-8-206-6-2 0-6 0-8 2 0 16-4 38-6 44-6 36-8 74-16 114-8 38-2 78-6 116-12 124-30 240-36 352 0 4-2 10-2 14 28 0 50 12 80 20 58 12 114 6 166 8 46 2 88-2 130-6 34-2 68-12 104-14 2-28 16-52 24-84 18-64 14-128 20-188 6-52 4-100 4-146 0-44-8-86-6-128-6 6-8 12-14 16-2 4-4 8-6 12-6 10-10 18-14 28-6 10-8 20-12 28-2 10-8 20-14 28-6 12-14 38-30 40-8 0-16 0-22-2-10-2-14-8-20-14-12-12-16-24-14-42-30 0-60-2-90-2-24 0-50-2-74-2-24-2-48 0-70-6-2 0-2-6 2-6 22-2 46 0 68 0 26 2 50 2 74 4 32 0 62 2 92 2 2-4 2-8 4-14 0 0 0-2 0-2 2 0 2-2 2-2 2-4 2-8 4-10 0 0 0-2 0-2 10-28 22-54 30-82 0-2 0-4 0-6s0-2 0-4c0 0 2 0 2 0 4-18 12-34 18-50 0-2 2-4 2-4s0 0 2 0c-12-2-24-4-26-4zM632 486c-4 0-6-2-8-4-4-2-8-4-14-4 0-2-8-4-8-4 0 2-2 2-2 2s0 0-2 2c0 6-4 10-2 18 4 8 16 12 22 12 2 0 2 0 2 0 4-4 6-10 8-14 0-2 2-4 4-8zM884 106c0-4 0-6-2-10-2 0-4-2-8-2-4-2-10-4-14-6-2 0-2 0-2 0-2 0-4 0-6-2-8 0-14-2-20-2-6-2-12 0-16 2-6 0-12-2-18-4-4 0-8 2-12 2-8 2-14 0-22 0-4 0-8 0-12 0-16 10-32 20-46 34-18 18-34 40-46 64-8 22-14 46-18 70-2 20-10 42-20 60-6 24-14 50-22 76-2 8-4 16-6 22-4 10-8 18-10 28-6 14-14 36-8 50 4 8 10 12 14 18 4 8 12 6 18 8 2 0 6 0 8-2-8 0-14-4-20-10-2-2-4-6-4-10-2-6 2-10 2-16 0-2 0-2 0-4 0 0 2-2 2-2 2 0 2-2 6-2 2 0 6 0 10 2 8 2 18 4 24 12 2-4 4-8 6-12 4-8 8-14 10-22 4-8 6-16 10-24 2-6 4-14 10-20 6-8 10-16 14-24 0-4 2-4 4-4 2-4 4-8 8-12 4-8 8-14 14-22 4-4 8-6 12-10-2-2 0-6 4-4 0 0 0 0 0 0 2-2 4-4 6-8s4-6 6-8 6-8 10-12c4-4 10 0 8 4-6 8-10 16-14 24-2 4-2 6-4 8 0 0 0 0 0 2 2 2 0 6 0 10s-2 8-2 12c0 0 0 2-2 2 0 4 2 6 2 8 0 4-2 8-2 12 0 6 0 12-2 18 0 12 0 24 0 36-2 10 0 20 2 32s2 24 2 36c0 22-4 44-4 66-2 12 2 22 2 32 0 6-2 12-2 16 22-22 40-42 52-68 10-18 16-36 20-54 2-12 6-22 10-32 2-22 8-44 12-64 4-14 8-28 12-42s6-28 12-40c0-2 2-4 2-8 4-22 10-46 16-68 0 0 0-2 2-2 0-2 0-4 2-8 0 0 0 0 0 0 2-10 4-20 6-30 2-6 4-12 6-20 0-8 2-16 4-24 0-6 0-14 0-20-4-12-4-22-6-32zM388 612c26 0 50 2 74 2 50 2 100 4 150 8 4 0 4 6 0 6-50 2-100-2-150-4-24 0-50-2-74-2-22 0-46 0-68-4-4-2-2-6 0-6 22-4 46 0 68 0zM324 532c22-4 46 0 68 0 26 0 50 2 74 2 50 2 100 4 150 8 4 0 4 6 0 6-50 2-100-2-150-4-24 0-50-2-74-2-22 0-46 0-68-4-2-2-2-6 0-6zM374 798c6-4 10-8 16-12 6-2 8-10 12-14 0-2 2-2 2-4 0-16 0-32-2-46 0-2 0-4 0-6 0 0 0 0 2 0 0-2 0-2 0-2 4-2 8 2 8 2 6 6 10 8 16 12 4 4 12 2 18 6 0 0 2 0 4 2 14-6 30-10 42-16 2-2 2-2 4-4 0 0 2 2 2 2 2 0 4-2 4 0 2 4 0 8 0 8-2 6-4 12-6 18-4 6 0 12-2 18 0 2 0 4 0 4 10 12 20 24 30 34 0 0 4 2 4 2 0 2 0 4-2 4 2 0 2 2 0 2-2 4-6 2-8 2-6 0-12 2-18 2s-12 4-18 6c-2 0-4 0-6 2-8 14-14 26-20 40 0 2 0 4-2 4 0 2-4-2-6-4 0 0 0 0 0 0-4-2-4-6-6-8-2-6-6-10-6-16-2-8-8-10-12-16-2-2-2-4-4-6-14-2-30-6-44-6-2 0-4 0-4 0-2 0-2-2-2-4 0 0-2 0-2-2 2-2 6-4 6-4zM390 790c-2-2-2-2-2-2 0 2 2 2 2 2zM424 726c0 2 0 4 0 2 2 0 2-2 0-2zM496 742c-2 0-4 0-2 0 0 2 2 0 2 0zM502 814c0-2 0-4 0-2 0 0 0 2 0 2zM438 840c0 0 2-2 0-2 0 0-2 2 0 2zM426 808h2v2c8 12 20 24 22 38 2-4 4-8 6-10 6-8 10-16 14-24v0l2-2c12-2 24-8 38-8-2-2-6-6-8-10-4-8-10-14-16-20l-2-2v-2c2-12 2-24 6-36-4 2-8 4-12 4-10 0-18 4-26 8l-2 2-2-2c-12-4-24-8-34-16 0 4 0 8 0 12-4 10-2 20 0 28v2c-10 10-16 20-26 26 4 2 8 2 12 4 8 4 18 6 26 6zM116 480c-8-2-18 0-28 4-12 4-10-8 0-14 16-6 28-8 38-4 6 4-2 14-10 14zM788 704c8 4 14 10 24 14 6 2 2 12-6 10s-18-4-26-8c-8-8-2-20 8-16zM456 188c-2 12-14 6-14-6 0-16 2-28 10-36 4-4 12 8 8 14s-4 18-4 28z" />
<glyph unicode="&#xe042;" glyph-name="o-key-piu" d="M100 526c-6 4-10 8-16 8-8 0-14-4-18-12s-6-20-6-36v-12c0-22 2-34 2-40 2-8 4-12 8-16 4-2 10-4 16-4 4 0 8 2 12 4 4 4 6 10 8 16 2 8 2 22 2 40s0 28 0 36c-2 6-6 12-8 16zM88 438c0-4-2-6-2-6s0 0 0 0c-2 0-4 0-4 0-2 0-2 2-2 6-2 2-2 10-2 36v12c0 18 2 26 2 28 0 0 2 0 2 0s2 0 2 0c0 0 0 0 2 0 0-2 2-4 2-8 2-4 2-12 2-32 0-24 0-32-2-36zM436 490c-6 0-10-4-12-8-4-4-6-14-6-24h30c0 10 0 18-2 24s-6 8-10 8zM624 520c-6 6-10 8-16 8h-36c-8 0-16-6-18-14-2 8-10 14-18 14h-34c-6 0-12-2-14-8-2-4-4-8-4-14-2 4-4 8-8 10-12 12-26 16-42 16-20 0-38-8-52-26-12-16-20-36-20-62 0 0 0-2 0-2l-14 36 36 84c2 6 0 14-2 18-4 4-8 8-14 8h-42c-8 0-12-4-16-12l-2-4c-2 10-8 16-18 16h-40c-10 0-18-10-18-20v-92l-60 2c-2 0-2 0-4 0 0 20-2 36-4 48-4 14-10 26-18 36-8 8-16 16-26 22-8 6-22 8-36 8-18 0-34-4-46-14-12-8-20-20-28-36-6-16-10-38-10-68 0-42 8-72 22-90 16-20 36-30 62-30s46 10 62 28c6 8 12 18 14 30 4-2 6-2 10-2h62v-34c0-10 8-18 18-18h40c10 0 18 8 18 18l2-6c4-8 10-12 16-12h44c6 0 10 4 14 8 0 2 2 4 2 6 10-10 24-18 46-18 18 0 34 4 44 14 12 12 18 26 22 44 0 2 0 2 0 4s-2 4-2 6c2 4 4 8 4 12s0 6 0 10l16-66-16-56c-2-4 0-10 2-16 4-4 10-6 16-6h36c8 0 14 4 16 12l56 192c2 6 2 12-2 16zM132 396c-12-14-28-22-48-22s-36 8-48 24c-12 14-18 40-18 78 0 26 2 46 8 60 6 12 14 20 22 28 10 6 22 10 36 10 12 0 22-2 30-6 6-4 14-10 20-18s10-16 14-28c2-12 4-28 4-46 0-38-8-66-20-80zM170 430l2 30h60v-30zM328 378l-38 88v-88h-40v192h40v-80h2l34 80h42l-40-92 42-100zM424 408c4-4 8-6 14-6 8 0 12 4 12 14h32c-2-14-6-24-14-32-8-6-18-10-32-10-18 0-30 6-40 18s-12 30-12 52c0 20 4 38 14 50 10 14 20 20 36 20 12 0 22-4 28-12 8-6 14-14 16-24 4-10 4-24 4-42h-62c0-14 2-24 4-28zM552 318h-36l18 62-34 130h36l16-88 20 88h36zM732 540h-10l-14-60h8c6 0 14 4 18 8 6 4 10 12 12 22 6 20 2 30-14 30zM808 504c8 28 4 48-6 64-12 16-30 24-58 26h-56c-8 0-16-6-18-14l-54-208c-2-6 0-12 2-16 4-6 10-8 14-8h44c10 0 16 6 18 14l18 68c24 0 44 8 60 20 18 12 30 32 36 54zM764 464c-14-12-32-16-52-16h-12l-24-82-44-2 56 210h56c42-2 58-24 46-66-4-18-14-34-26-44zM1020 518c-4 4-8 8-14 8h-6c0 0 0 2 0 2l-8 48c-2 10-10 16-18 16h-48c-6 0-12-2-14-8-4-6-4-14 0-20l22-38h-30c-8 0-16-6-18-14v-4c0 4-2 8-4 12 0 0-2 0-2 0 2 2 2 2 2 2 8 8 14 16 18 26 4 16 0 26-4 34-6 8-16 14-28 14h-2c-10 0-20-4-30-10-8-8-14-16-16-26-4-16 0-26 4-32 0 0 0-2 2-2-6-2-12-6-14-14l-36-138c-2-6 0-12 4-18 2-4 8-6 14-6h38c8 0 14 6 16 14l14 50c-2-18 0-32 8-44 6-10 20-22 48-22h2c18 0 36 6 52 18 14 12 24 30 30 50l22 86c2 6 0 12-4 16zM926 574h46l8-48h-26zM836 554c2 8 6 12 12 16 6 6 10 8 18 8 6 0 10-2 14-8 2-4 4-10 0-16 0-8-4-12-10-18-6-4-12-6-18-6s-10 2-14 8c-2 4-4 10-2 16zM828 368l-36-2 36 142 38-2zM982 418c-4-16-12-28-24-38-10-10-24-14-40-14v0c-16 0-28 4-34 14s-8 24-2 42l22 84h38l-24-88c-6-14-2-22 8-22s16 8 20 22l24 88h34z" />
<glyph unicode="&#xe043;" glyph-name="comuni-filtro" d="M1024 960h-1024l334-412v-390l314-222v610zM374 534h234v-522l-234 164zM936 922l-316-348h-256l-282 348z" />
<glyph unicode="&#xe044;" glyph-name="comuni-freccia-accordion-apri" d="M1011.712 689.664c-16.384 18.432-47.104 18.432-65.536 2.048l-434.176-393.216-434.176 393.216c-18.432 16.384-47.104 16.384-65.536-2.048-16.384-18.432-16.384-47.104 2.048-63.488l466.944-423.936c2.048 0 2.048-2.048 4.096-2.048 0 0 2.048 0 2.048-2.048 6.144-4.096 14.336-6.144 22.528-6.144 10.24 0 22.528 4.096 30.72 12.288l464.896 421.888c22.528 16.384 22.528 45.056 6.144 63.488z" />
<glyph unicode="&#xe045;" glyph-name="comuni-freccia-accordion-chiudi" d="M12.288 206.336c16.384-18.432 47.104-18.432 65.536-2.048l434.176 393.216 434.176-393.216c18.432-16.384 47.104-16.384 65.536 2.048 16.384 18.432 16.384 47.104-2.048 63.488l-468.992 423.936c-2.048 0-2.048 2.048-4.096 2.048 0 0-2.048 0-2.048 2.048-6.144 4.096-14.336 6.144-22.528 6.144-10.24 0-22.528-4.096-30.72-12.288l-466.944-421.888c-18.432-16.384-18.432-45.056-2.048-63.488z" />
<glyph unicode="&#xe046;" glyph-name="comuni-search" d="M746 592c0 188-142 368-378 368-216 0-368-152-368-368 0-198 132-378 368-378 96 0 186 34 256 94l362-372c20 0 38 18 38 38l-372 362c58 64 94 150 94 256zM670 592c0-198-160-302-302-302-198 0-292 160-292 302 0 170 122 292 292 292 198 0 302-150 302-292z" />
<glyph unicode="&#xe047;" glyph-name="vorrei-cerchio-cuore-pieno" d="M636 674c92 0 166-74 166-164 0-148-136-240-224-300-22-16-42-30-56-42l-10-6-10 6c-14 12-34 26-56 42-88 60-224 152-224 300 0 90 74 164 166 164 48 0 92-22 124-58 32 36 76 58 124 58zM0 448c0-282 230-512 512-512s512 230 512 512c0 282-230 512-512 512s-512-230-512-512z" />
<glyph unicode="&#xe048;" glyph-name="print" d="M922 530c0-22-18-42-42-42-22 0-40 20-40 42s18 40 40 40c24 0 42-18 42-40zM308 222h408c12 0 22 10 22 22 0 10-10 20-22 20h-408c-12 0-22-10-22-20 0-12 10-22 22-22zM962 674h-122v286h-656v-286h-122c-34 0-62-28-62-62v-430c0-34 28-62 62-62h122v-184h656v184h122c34 0 62 28 62 62v430c0 34-28 62-62 62zM226 920h572v-246h-572zM798-24h-572v370h572zM984 182c0-12-10-20-22-20h-122v224h-656v-224h-122c-12 0-22 8-22 20v430c0 12 10 20 22 20h900c12 0 22-8 22-20zM308 140h326c12 0 22 10 22 22 0 10-10 20-22 20h-326c-12 0-22-10-22-20 0-12 10-22 22-22zM308 58h408c12 0 22 10 22 22 0 10-10 20-22 20h-408c-12 0-22-10-22-20 0-12 10-22 22-22z" />
<glyph unicode="&#xe049;" glyph-name="azioni-c-elimina-n" d="M768 658l-30 28-226-226-226 226-30-28 226-228-226-226 30-30 226 228 226-228 30 30-226 226zM0 448c0-282 230-512 512-512s512 230 512 512c0 282-230 512-512 512s-512-230-512-512zM40 448c0 260 212 472 472 472s472-212 472-472c0-260-212-472-472-472s-472 212-472 472z" />
<glyph unicode="&#xe04a;" glyph-name="comuni-impostazioni" d="M558 960h-98c-28-2-28-36-30-52-4-22-8-44-14-68-2-12-4-26-8-38-22-10-68-34-72-34-6 0-116 82-134 82-4 0-14-2-18-6-12-12-76-64-76-88 0-22 80-122 80-134 0-4-22-50-32-72-26-6-56-8-82-16s-66 4-74-40v-90c0-4 6-22 14-24 10-6 28-8 42-10 26-4 52-10 78-16 10-2 22 0 26-10 14-18 32-64 32-70 0 0-82-120-82-132 0-4 0-12 4-16 22-22 46-48 70-68 4-8 16-12 20-12 6 0 12 2 18 6 40 24 112 76 118 76 4 0 58-14 70-34 24-40 20-94 28-140 2-4 12-14 20-18h106c6 0 20 12 22 18 10 38 16 78 22 114 2 10 0 24 10 30 10 8 22 8 34 12s28 18 34 18c4 0 114-82 134-82 12 0 16 4 26 14 16 14 70 60 70 82 0 12-82 132-82 132 0 6 14 56 34 74 8 10 22 6 34 8 32 8 76 10 110 24 6 2 10 10 12 16v108c0 12-22 20-24 20-46 8-94 12-136 28-16 4-14 26-20 38-4 12-14 30-14 36s80 116 80 132c0 4-4 14-8 18-12 14-64 76-88 76-18 0-122-80-132-80-6 0-32 18-48 22-8 4-22 4-26 12-4 10-4 20-6 28-8 40-8 74-22 112-4 12-16 14-22 14zM536 906c6-40 12-82 20-124 0-4 10-20 18-24 12-6 28-8 42-14 8-2 50-30 66-30 20 0 102 60 128 76l38-36c-8-12-78-110-78-128 0-4 30-74 44-110 2-8 18-14 26-16 42-8 86-18 130-26v-50c-48-10-96-14-140-30-4 0-8-4-10-10-8-12-10-28-16-42-6-12-28-52-28-68 0-18 76-126 76-130 0-2-22-24-36-38-4 2-108 78-128 78-16 0-38-14-54-22-10-6-22-10-32-12-12-4-36-10-40-30-8-44-16-88-24-130h-50c-8 42-16 88-26 130-2 10-14 24-22 24-14 4-34 10-48 18-14 6-38 22-54 22-22 0-126-76-128-78-12 12-36 36-36 38 0 4 76 112 76 130 0 16-24 48-26 60-6 12-10 26-14 38-6 30-36 28-54 34-32 6-66 10-100 18v50c30 6 62 12 94 18 16 4 46 0 56 28 6 14 10 32 16 44 4 18 26 44 26 60 0 18-74 124-78 128l36 38c6-4 108-78 128-78 14 0 50 20 60 26 22 12 58 10 64 34 4 16 8 30 10 46 4 28 12 58 18 88zM740 448c0 126-98 230-230 230-104 0-214-70-230-212v-34c0-4 6-38 12-58 38-110 138-154 220-154 124 0 228 106 228 228zM684 448c0-100-80-174-174-174-64 0-136 32-166 120-4 12-8 32-8 36v38c12 106 98 158 176 158 98 0 172-82 172-178z" />
<glyph unicode="&#xe04b;" glyph-name="comuni-c-persona-n" d="M30 448c0 266 216 482 482 482s482-216 482-482c0-266-216-482-482-482s-482 216-482 482zM0 448c0-282 230-512 512-512s512 230 512 512c0 282-230 512-512 512s-512-230-512-512zM742 214c-4 70-58 92-102 110-26 10-50 20-56 36-2 14-2 24-2 36v4c10 12 22 34 24 54 8 4 18 14 22 40 2 12-2 22-8 28 8 24 20 82-2 120-10 16-24 26-44 30-10 14-30 22-58 22-42-2-72-14-90-38-22-30-26-74-12-134-6-6-8-16-8-28 4-26 14-36 22-40 4-20 14-42 24-54v-4c0-12 0-22 0-36-8-16-30-26-56-36-44-18-100-40-104-110v-12h450zM316 226c8 46 48 62 88 76 30 14 60 24 68 52l2 2c0 16 0 28 0 40v18l-6 2c-4 4-18 28-20 48v10h-10c-2 0-6 4-10 22 0 10 4 14 4 14l8 4-2 8c-14 54-12 94 6 120 14 18 38 28 72 28 22 0 36-4 42-14l2-4 6-2c14-2 26-8 32-20 18-28 8-80 0-108l-4-8 8-4c0 0 4-4 4-14-2-18-8-22-10-22h-10v-10c-2-22-16-44-20-48l-6-2v-18c0-12 0-24 2-40v-2c10-28 38-38 70-52 38-14 78-30 86-76z" />
<glyph unicode="&#xe04c;" glyph-name="comuni-c-persona-s" d="M632 302c-32 14-60 24-70 52v2c-2 16-2 28-2 40v18l6 2c4 4 18 26 20 48v10h10c2 0 8 4 10 22 0 10-4 14-4 14l-8 4 4 8c8 28 18 80 0 108-6 12-16 18-32 20l-6 2-2 4c-6 10-20 14-42 14-34 0-58-10-72-28-18-24-20-66-6-120l2-8-8-4c0 0-4-4-4-14 4-18 8-22 10-22h10v-10c2-20 16-44 20-48l6-2v-18c0-12 0-24 0-40l-2-2c-8-28-38-38-68-52-40-14-80-30-88-76h402c-8 46-48 62-86 76zM512 960c-282 0-512-230-512-512s230-512 512-512c282 0 512 230 512 512s-230 512-512 512zM292 202v12c4 70 60 92 104 110 26 10 48 20 56 36 0 14 0 24 0 36v4c-10 12-20 34-24 54-8 4-18 14-22 40 0 12 2 22 8 28-14 60-10 104 12 134 18 24 48 36 90 38 28 0 48-8 58-22 20-4 34-14 44-30 22-38 10-96 2-120 6-6 10-16 8-28-4-26-14-36-22-40-2-20-14-42-24-54v-4c0-12 0-22 2-36 6-16 30-26 56-36 44-18 98-40 102-110v-12z" />
<glyph unicode="&#xe04d;" glyph-name="comuni-c-azienda-n" d="M1024 448c0 282-228 512-512 512-236 0-486-168-512-482v-60c0-2 6-56 12-82 4-22 10-46 20-68 96-238 304-332 480-332 282 0 512 228 512 512zM648 916c18-6 38-14 60-22 78-28 192-130 232-216 6-12 12-24 18-34 6-16 12-36 18-52 2-8 6-20 8-32 6-22 14-70 14-74v-74c-4-26-8-50-14-76-20-100-104-238-226-306-12-6-26-14-38-20s-24-12-34-16c-20-6-40-14-58-18-2 0-68-14-80-14h-74c-20 4-40 6-62 10-64 14-136 44-198 92-64 48-116 116-142 176-6 14-12 30-18 44-8 20-14 44-18 64s-10 60-10 62v76c4 24 6 48 12 74 22 102 104 238 228 308 16 8 34 18 50 26 16 6 32 12 48 18 14 6 32 8 48 12 20 6 62 10 66 10h68c24 0 82-14 102-18zM732 254h-172v114c0 4-4 10-10 10h-76c-6 0-10-6-10-10v-114h-172v332l220 56 220-56zM540 254h-56v104h56zM742 602l-228 58c-2 0-2 0-4 0l-228-58c-6 0-8-4-8-8v-350c0-4 4-8 10-8h456c6 0 10 4 10 8v350c0 4-2 8-8 8zM408 510h-58v38h58zM416 566h-76c-4 0-8-4-8-10v-56c0-6 4-10 8-10h76c6 0 10 4 10 10v56c0 6-4 10-10 10zM616 358h58v-38h-58zM608 302h76c4 0 8 4 8 10v56c0 4-4 10-8 10h-76c-6 0-10-6-10-10v-56c0-6 4-10 10-10zM616 548h58v-38h-58zM608 490h76c4 0 8 4 8 10v56c0 6-4 10-8 10h-76c-6 0-10-4-10-10v-56c0-6 4-10 10-10zM540 414h-56v38h56zM550 472h-76c-6 0-10-4-10-10v-56c0-6 4-10 10-10h76c6 0 10 4 10 10v56c0 6-4 10-10 10zM408 414h-58v38h58zM416 472h-76c-4 0-8-4-8-10v-56c0-6 4-10 8-10h76c6 0 10 4 10 10v56c0 6-4 10-10 10zM408 320h-58v38h58zM416 378h-76c-4 0-8-6-8-10v-56c0-6 4-10 8-10h76c6 0 10 4 10 10v56c0 4-4 10-10 10zM484 548h56v-38h-56zM464 556v-56c0-6 4-10 10-10h76c6 0 10 4 10 10v56c0 6-4 10-10 10h-76c-6 0-10-4-10-10zM616 452h58v-38h-58zM608 396h76c4 0 8 4 8 10v56c0 6-4 10-8 10h-76c-6 0-10-4-10-10v-56c0-6 4-10 10-10z" />
<glyph unicode="&#xe04e;" glyph-name="comuni-c-azienda-s" d="M742 602c6 0 8-4 8-8v-350c0-4-4-8-10-8h-456c-6 0-10 4-10 8v350c0 4 2 8 8 8l228 58c2 0 2 0 4 0zM1024 448c0 282-228 512-512 512-236 0-486-168-512-482v-60c0-2 6-56 12-82 4-22 10-46 20-68 96-238 304-332 480-332 282 0 512 228 512 512zM732 254v332l-220 56-220-56v-332h172v114c0 4 4 10 10 10h76c6 0 10-6 10-10v-114zM416 566c6 0 10-4 10-10v-56c0-6-4-10-10-10h-76c-4 0-8 4-8 10v56c0 6 4 10 8 10zM608 302c-6 0-10 4-10 10v56c0 4 4 10 10 10h76c4 0 8-6 8-10v-56c0-6-4-10-8-10zM608 490c-6 0-10 4-10 10v56c0 6 4 10 10 10h76c4 0 8-4 8-10v-56c0-6-4-10-8-10zM550 472c6 0 10-4 10-10v-56c0-6-4-10-10-10h-76c-6 0-10 4-10 10v56c0 6 4 10 10 10zM416 472c6 0 10-4 10-10v-56c0-6-4-10-10-10h-76c-4 0-8 4-8 10v56c0 6 4 10 8 10zM416 378c6 0 10-6 10-10v-56c0-6-4-10-10-10h-76c-4 0-8 4-8 10v56c0 4 4 10 8 10zM464 556c0 6 4 10 10 10h76c6 0 10-4 10-10v-56c0-6-4-10-10-10h-76c-6 0-10 4-10 10zM608 396c-6 0-10 4-10 10v56c0 6 4 10 10 10h76c4 0 8-4 8-10v-56c0-6-4-10-8-10zM408 510v38h-58v-38zM616 358v-38h58v38zM616 548v-38h58v38zM540 414v38h-56v-38zM408 414v38h-58v-38zM408 320v38h-58v-38zM484 548v-38h56v38zM616 452v-38h58v38zM540 254v104h-56v-104z" />
<glyph unicode="&#xe04f;" glyph-name="ops-personafisica" d="M1002-38c-8 146-124 192-218 228-56 22-106 42-120 76-2 26-2 48-2 72v12c22 22 44 68 52 110 16 10 38 30 44 84 4 26-4 46-14 58 14 48 42 172-8 252-20 32-52 54-92 62-22 28-66 44-124 44-88-2-154-28-192-80-46-62-56-154-26-276-12-14-18-34-16-60 6-54 28-76 44-84 8-42 32-88 54-110v-12c0-24 0-46-2-72-16-34-64-54-120-76-94-36-210-82-220-228l-2-26h964zM94-16c18 96 102 128 186 162 64 26 126 50 148 106l2 6c2 30 2 56 2 80v38l-14 6c-10 8-38 56-42 98l-2 20-20 2c-4 0-16 10-20 46-2 20 6 28 8 28l14 8-4 18c-30 112-24 198 14 248 30 40 82 60 154 62 46 0 78-12 90-30l4-10 12-2c32-4 56-18 70-42 36-60 16-170-2-224l-6-18 16-10c0 0 10-8 6-28-4-36-16-46-20-46l-20-2-2-20c-4-42-32-92-40-98l-14-6v-38c0-24 0-50 2-80l2-6c20-56 82-80 148-106 82-34 166-66 186-162z" />
<glyph unicode="&#xe050;" glyph-name="ops-personagiuridica" d="M534 510c6-2 12-10 18-14 4-2 12-4 18-4 24-8 26-38 26-54 0-18-12-68-12-68 0-4 8-18 8-22 0-2 0-10-2-12-4-4-12-8-14-14-6-12-6-28-16-42-14-18-14-26-14-44 0-14-4-28 2-42 12-26 48-40 68-50 30-10 74-22 92-64h-398c4 6 8 16 14 22 14 16 36 24 54 32 30 14 86 26 96 72v54c-6 6-14 16-18 24-6 14-8 28-14 38 0 6-8 6-12 12-4 4-4 12-4 14 0 4 8 18 8 22 0 2-8 44-8 48v34c6 50 50 62 82 62 4 0 18 0 26-4zM560 542c-16 10-36 12-52 12-18 0-38-2-54-8-4 2-8 6-10 8v30c0 4 10 16 14 22 2 6 4 16 8 20 2 6 8 10 10 14 6 12 10 24 10 34 0 8-6 22-6 24 0 4 8 34 8 56 0 24-6 56-34 76-8 4-16 4-22 8-20 16-40 20-58 20-46 0-104-20-110-88v-38c0-4 6-30 6-34 0 0-2-4-4-8-8 0-16 0-24 0-52 0-112-20-122-98v-42c0-2 6-34 6-38 0 0-6-20-6-26 0-10 2-28 10-40 2-4 8-8 10-12 4-6 6-14 8-20 2-8 12-24 18-32v-36c-6-8-14-14-20-16-64-26-146-56-146-130 0-8 2-20 16-26h350c-34-12-78-36-92-76-4-10-8-24-8-36 0-8 0-18 16-24h454c12 0 18 16 18 24 0 30-24 78-64 96-12 4-26 10-38 16h356c14 0 16 20 16 24 0 56-52 96-110 116-18 8-48 14-56 38v30c10 12 14 22 18 34 2 6 2 14 6 18 12 14 22 32 22 52 0 10-6 20-6 26 0 10 10 28 10 62 0 26 0 14-10 48-4 14-20 32-30 38-8 4-18 6-24 10-24 18-44 20-64 20-8 0-16 0-24 0-2 4-2 8-2 8 0 8 8 40 8 56 0 12-2 28-8 40-4 12-16 28-28 36-8 4-16 4-22 10-22 14-38 18-58 18-48 0-104-20-110-92v-32c0-2 6-32 6-36s-6-12-6-22c0-10 4-26 8-36 4-4 10-8 12-14 4-10 10-30 22-42v-24c-4-2 0-8-8-12-2-2-6-4-10-6zM416 524c-16-16-28-40-32-72v-10h-32l-2-2c0-2 0-2-2-4 2 2 4 4 4 6 12 18 16 28 16 42 0 4 0 8-2 12 0 4-6 12-6 16 0 2 8 24 8 38 2 8 4 22 4 24 0 24-8 58-32 80-6 6-14 10-20 12-4 0-10 0-12 4l-4 2v2c0 2 8 16 8 20 0 8-8 38-8 58 0 46 26 64 68 64 16 0 22 0 40-14 2-4 10-4 14-4 18-8 22-30 22-46 0-18-10-50-10-58 0-6 6-16 6-20 0-10-6-8-14-20-6-10-6-22-12-34-2-4-6-10-12-18-2-2-2-22-2-28 0-10-2-26 4-38 2-4 6-8 8-12zM384 418c0-2 8-38 8-42 0 0-8-20-8-28 0-12 4-28 12-40 0 0 0 0 2 0-6 2-12 4-18 6-20 6-42 12-60 34v34c0 4 8 10 10 14 0 2 2 4 4 6h52c0 6-2 10-2 12zM434 232c0-4 0-10-2-16h-386c2 6 6 16 10 20 12 14 30 24 44 30 34 18 100 28 108 80v48c-4 6-12 16-16 24-6 10-10 26-12 34-2 6-10 12-14 16s-6 12-6 16c0 2 10 18 10 22s-10 52-10 66c0 58 32 78 82 78 14 0 24 0 42-16 10-8 24-4 34-16 8-10 12-32 12-44 0-16-12-66-12-68 0-6 10-16 10-20s-2-10-4-14c-4-4-12-6-14-14-6-8-6-20-10-30-2-6-6-12-10-18-2-4-6-6-8-10-4-6-2-22-2-30 0-4-4-22 0-34 30-66 122-58 154-104zM586 216v10c46 70 160 46 160 134v28c-2 4-2 12-6 16-24 20-14 48-36 64-4 2-8 14-8 16 0 4 8 12 10 18v4l-10 52v26c4 56 48 66 82 66 16 0 24 0 46-18 6-6 18-2 26-10 18-16 16-30 16-48 0-2 0-12-2-18-2-16-10-46-10-50s10-20 10-22c0-4-2-10-4-14-4-4-10-6-14-12s-4-14-6-20c-2-8-6-18-12-26-10-14-12-24-12-40 0-2-2-26 2-38 10-34 50-46 76-56 28-12 68-22 84-62zM614 300c2 4 6 6 8 8 8 14 12 30 12 40 0 4-6 24-6 28 0 6 8 34 8 60v-2c0-12 0-22-2-32h58c2-8 6-14 12-20v-30c-2-4-4-10-10-16-24-14-54-22-80-36zM636 442c0 16-4 36-10 50-4 6-16 22-24 28 6 8 12 16 16 28v50c-4 6-10 14-14 22-6 10-8 24-14 34 0 4-6 6-10 10-2 2-2 6-2 10 0 2 6 16 6 20s-6 36-6 38v34c2 42 40 50 68 50 2 0 16 0 22-2s10-10 18-14c6-2 12-2 18-6 18-10 16-28 16-42 0-24-10-50-10-58 0-4 4-10 6-16-32-14-58-42-60-94v-26c0-2 8-42 8-44 0-4-8-22-8-28 0-12 4-26 10-38 0-2 2-4 4-6zM672 440c0 0 2-2 4-4-2 0-4 2-4 4z" />
<glyph unicode="&#xe051;" glyph-name="ops-dittaindividuale" d="M868 38c-14 98-96 132-162 158-42 16-78 32-88 56-2 22-2 38-2 56v8c16 18 32 54 38 86 14 6 30 22 34 62 2 20-4 36-12 46 12 36 32 130-4 190-16 26-38 40-70 48-16 20-48 32-92 32-66 0-114-20-144-60-34-46-40-118-18-210-8-10-14-26-12-46 4-40 20-56 34-64 6-30 22-66 38-84v-8c0-18 0-34 0-56-12-24-48-40-90-56-66-26-148-60-162-158h-116v720l472 120 472-120v-720zM192 40c14 72 78 98 140 122 48 20 94 38 110 80v4c2 24 2 44 2 62v28l-8 6c-8 4-30 42-34 74v16h-16c-2 2-10 8-14 36-2 16 6 20 6 20l10 8-2 12c-22 86-20 152 10 190 22 30 60 46 114 46 34 0 58-8 66-22l6-8 8-2c24-4 40-14 52-32 26-44 12-128-2-170l-4-14 10-8c2 0 8-4 6-20-4-28-12-34-14-36h-16v-16c-4-32-24-70-32-74l-10-6v-28c0-18 0-38 2-62l2-4c14-42 60-60 110-80 60-24 124-50 138-122zM1008 794l-490 124c-4 2-8 2-12 0l-490-124c-10-2-16-12-16-20v-756c0-12 10-20 20-20h984c10 0 20 8 20 20v756c0 8-6 18-16 20z" />
<glyph unicode="&#xe052;" glyph-name="ops-cittadinanzaitaliana" d="M686 98c-8 104-90 138-156 164-40 16-76 30-86 54-2 20-2 36-2 52l2 10c14 16 30 48 36 78 12 8 26 22 32 60 2 20-4 34-12 44 10 34 32 122-4 180-14 24-36 38-66 44-16 22-48 32-88 32-64 0-110-20-138-58-32-44-38-110-18-198-8-10-14-24-12-44 6-38 20-54 32-60 6-30 22-64 38-78v-8c0-18 0-34-2-54-10-24-44-38-84-54-68-26-150-60-156-164l-2-18h686zM38 114c12 68 74 92 132 116 46 18 90 36 106 76v4c2 24 2 40 2 60v26l-8 4c-8 6-28 40-32 72v14l-14 2c-4 0-12 6-16 32 0 14 6 20 6 20l10 6-2 12c-22 82-18 144 10 180 20 28 58 44 110 44 32 0 56-8 64-22l4-8h8c22-4 38-14 50-30 26-44 10-122-2-162l-4-14 10-6c0 0 8-6 6-20-4-26-12-32-14-32l-14-2-2-14c-4-32-24-66-30-72l-10-4v-26c0-20 0-36 2-60l2-4c14-40 58-58 106-76 58-24 118-48 130-116zM642 312v196h-38v-196zM774 312v164h60v32h-158v-32h60v-164zM900 388l28 88 30-88zM952 508h-48l-70-196h40l14 44h82l14-44h40z" />
<glyph unicode="&#xe053;" glyph-name="ops-cittadinanzaestera" d="M490 282c-14 24-22 50-26 72 0 4 0 8-2 12v8h96c2-32 6-64 14-98-14-4-28-8-42-14-16 6-28 12-40 20zM980 374c-4-40-18-84-48-124-20 12-42 20-62 24 8 34 12 68 14 100zM902 218c-20-18-46-36-78-48 14 20 24 42 32 64 18-6 34-10 46-16zM884 416v2c-2 34-6 66-14 100 16 4 32 10 48 18 4 2 10 4 14 6 30-38 44-82 48-126zM856 558c-8 22-18 44-32 64 30-12 56-30 76-48-16-6-32-14-40-16zM646 206c-6 12-12 26-18 40l12 2c12 0 26 2 40 4h18v-98c-2 0-4 0-6 2-12 20-28 36-46 50zM712 108c2 0 6 0 10 0 150 0 302 114 302 288 0 170-148 288-302 288-64 0-132-18-186-58 6 40 6 92-18 130-16 26-38 42-70 48-16 22-48 34-92 34-66-2-114-22-142-62-36-46-42-118-20-210-8-10-14-26-12-46 6-40 20-56 34-62 6-32 22-68 38-84l2-10c0-18 0-34-2-54-12-26-48-42-90-58-70-28-156-62-162-174l-2-20h716v20c-2 10-2 20-4 30zM534 530c12-4 26-8 38-12-8-34-12-68-14-102h-70c6 14 10 28 14 42 12 6 28 22 32 62 0 4 0 6 0 10zM538 572c16 16 34 28 54 38 6 4 16 8 26 12-14-20-24-42-32-66-14 4-26 8-38 14-2 0-6 2-10 2zM772 618c18-22 32-46 44-70-16-2-32-4-48-6-8 0-22-2-26-2-2 0 0 0-2 0v100c12-4 22-10 32-22zM828 508c8-32 12-62 12-92h-100v84c30 0 60 2 88 8zM840 374c-2-22-6-46-8-68-2-4-2-12-6-22-6 2-12 2-20 4-22 4-44 4-66 4v82zM814 244c-16-38-40-80-74-92v100h18c14 0 34-4 56-8zM616 286c-10 34-14 66-14 78v10h96v-82c-26 0-54-2-82-6zM602 416v10c2 6 2 12 2 18-2 6 2 32 12 64 4 0 8-2 14-2 20-4 46-6 68-6v-84zM628 548c16 40 38 78 70 90v-98c-22 0-42 4-58 6-4 0-8 0-12 2zM40 96c12 72 76 98 138 122 48 20 94 38 110 80v6c4 24 2 42 2 60v28l-8 6c-8 6-30 42-32 76l-2 14-16 2c-2 0-10 6-14 34-2 16 6 20 6 20l10 8-2 12c-22 86-18 152 10 190 22 30 60 46 114 46 34 0 60-8 66-22l6-8 8-2c24-2 40-14 52-32 28-44 12-128-2-170l-4-14 12-8c0 0 6-4 4-20-2-28-12-34-14-34l-14-2-2-14c-4-34-24-70-32-76l-8-6-2-28c0-18 0-36 2-60l2-6c16-42 62-60 110-80 62-24 124-50 138-122z" />
<glyph unicode="&#xe054;" glyph-name="ops-aggiungidebitore" d="M532 364c-2 22-2 40-2 62v10c18 18 36 58 44 94 14 8 32 26 38 72 2 22-4 40-14 52 12 40 38 146-4 214-18 28-44 46-80 54-20 24-56 38-106 38-76-2-130-24-164-70-40-52-46-132-22-236-8-12-16-28-12-52 4-46 22-64 36-72 8-36 28-76 46-94v-10c0-20 0-40-2-62-12-30-54-46-102-66-80-30-180-70-186-196l-2-22h512l-12 42h-456c16 82 88 110 160 138 56 22 108 44 126 92v4c4 28 4 48 2 70v20l2 12-12 6c-8 6-32 48-36 84l-2 18h-18c-2 2-12 8-16 42-2 16 6 22 6 22l12 8-2 14c-26 96-22 170 10 214 26 34 70 52 132 52 38 0 68-8 76-26l6-8 10-2c26-4 46-14 58-36 32-50 14-144-2-192l-4-16 12-8c2 0 10-6 8-22-4-34-16-40-18-42h-16l-2-18c-4-36-28-78-36-84l-10-6-2-32c0-22 0-42 2-70l2-4c8-22 20-38 38-48l20 36c-8 4-14 12-18 24zM800 308h-42v-104h-102v-40h102v-104h42v104h102v40h-104zM778 432c-134 0-244-112-244-248s110-248 244-248c136 0 246 112 246 248s-110 248-246 248zM778-22c-112 0-204 92-204 206s92 206 204 206c114 0 206-92 206-206s-92-206-206-206z" />
<glyph unicode="&#xe055;" glyph-name="comuni-c-chiudiinformazioni-n" d="M188 374l52-34 272 220 256-220 70 34-326 274zM1024 448c0 282-230 512-512 512s-512-230-512-512c0-282 230-512 512-512s512 230 512 512zM984 448c0-260-212-472-472-472s-472 212-472 472c0 260 212 472 472 472s472-212 472-472z" />
<glyph unicode="&#xe056;" glyph-name="comuni-c-chiudiinformazioni-s" d="M188 374l324 274 326-274-70-34-256 220-272-220zM1024 448c0 282-230 512-512 512s-512-230-512-512c0-282 230-512 512-512s512 230 512 512z" />
<glyph unicode="&#xe057;" glyph-name="avvisi-comunicazione" d="M302 286l-262-200v402zM984 488v-402l-262 200zM40-14v50l402 308c28 20 54 24 68 24h4c14 0 40-4 68-24l402-308v-50zM862 444v198c62-52 102-86 122-102v-2zM164 444l-124 94v2c20 16 62 50 124 102zM204 778l10 4h596l10-4v-366l-130-100-132 96c0 0-16 10-42 10-24 0-48-14-48-14l-134-92-130 100zM358 818c64 56 74 60 86 70 18 14 40 22 68 22s50-8 68-22c10-8 80-70 80-70h-302zM300 818h-116c-10 0-20-10-20-20v-96l-158-138c-4-4-6-10-6-16v-582c0-10 10-20 20-20h984c10 0 20 10 20 20v582c0 6-2 12-6 16l-158 136v98c0 10-8 20-20 20h-118c-58 50-104 92-114 100-26 20-60 32-96 32s-70-12-96-32c-10-8-56-50-116-100z" />
<glyph unicode="&#xe058;" glyph-name="avvisi-c-comunicazione-n" d="M40 448c0 260 212 472 472 472s472-212 472-472c0-260-212-472-472-472s-472 212-472 472zM4 382l2-10c4-22 8-48 14-70 8-22 16-44 26-66l10-20 8-14c86-158 254-266 448-266h34c2 0 16 2 32 4s32 6 44 8c22 4 46 12 68 20 8 2 18 6 28 10 4 4 10 6 16 8 8 4 16 8 22 12l4 2c58 28 110 74 152 128 24 32 46 66 64 104s30 74 36 106c4 16 6 32 8 48 2 8 4 18 4 28v68c0 4-2 18-4 26v2c-4 28-8 56-16 82-26 78-64 144-110 196-32 36-68 68-110 94-74 46-162 74-256 78h-16c-96 0-186-26-264-74-80-48-150-118-196-212-28-56-46-118-50-184-2-8-2-14-2-20v-44l2-14zM412 372l-122-94v188zM728 466v-188l-120 94zM290 232v22l188 144c12 10 24 12 30 12h2c6 0 20-2 32-12l186-144v-22zM672 446v94c28-26 48-42 56-50v0zM348 446l-58 44c10 8 28 24 58 50zM366 602l4 4h278l4-4v-172l-60-46-62 46c0 0-6 4-18 4s-24-6-24-6l-62-44-60 46zM438 622c30 26 34 28 40 32 8 8 18 10 32 10 12 0 24-2 32-10 4-4 36-32 36-32h-140zM410 622h-52c-6 0-10-4-10-10v-44l-74-66c-2-2-2-4-2-6v-274c0-6 4-10 8-10h458c6 0 10 4 10 10v274c0 2-2 4-4 6l-72 64v46c0 6-4 10-10 10h-54c-28 22-50 42-54 46-12 10-28 16-44 16-18 0-34-6-44-16-6-4-28-22-56-46zM478-64h34c-194 0-362 108-448 266 4-10 10-20 14-28 106-162 268-228 400-238zM2 412c0-10 0-20 2-30z" />
<glyph unicode="&#xe059;" glyph-name="avvisi-c-comunicazione-s" d="M414 622c28 24 50 42 54 46 12 10 26 16 44 16s32-6 44-16c6-4 26-24 54-46h54c4 0 10-4 10-10v-46l72-64c2-2 2-4 2-6v-274c0-6-4-10-8-10h-456c-4 0-8 4-8 10v274c0 2 0 4 2 6l72 66v44c0 6 6 10 10 10zM0 448c0-282 230-512 512-512s512 230 512 512c0 282-230 512-512 512s-512-230-512-512zM414 372l-120 94v-188zM730 466l-120-94 120-94zM294 232h436v22l-186 144c-12 10-24 12-30 12h-4c-6 0-18-2-30-12l-186-144zM674 446l56 44c-8 8-28 24-56 50zM350 446v94c-28-26-46-42-56-50v0zM370 602v-172l60-46 62 44c0 0 10 6 22 6s20-4 20-4l60-46 60 46v172l-4 4h-276zM440 622v0h140c0 0-32 28-36 32-8 8-20 10-32 10s-24-2-32-10c-6-4-10-6-40-32z" />
<glyph unicode="&#xe05a;" glyph-name="avvisi-istituzionale" d="M10 468c0-34 28-64 62-64 32 0 60 24 64 56 32 16 70 34 102 48 10-10 26-18 44-18 34 0 62 28 62 64 0 8-2 16-4 24 36 32 74 66 112 98 10-10 24-16 38-16 20 0 36 10 48 24l98-42v-2c0-36 28-64 64-64 34 0 62 28 62 64 0 10-4 22-8 30 40 50 80 102 118 152 2 4 6 8 12 14 6-2 16-4 24-4 34 0 62 28 62 64s-28 64-62 64c-34 0-62-28-62-64 0-12 2-22 8-32-44-54-86-110-128-166-8 4-18 6-26 6-22 0-40-10-50-26l-98 42c0 2 2 4 2 4 0 36-28 66-64 66-34 0-62-30-62-66 0-4 0-10 2-14-36-30-72-66-110-98l-6-4c-8 6-20 10-32 10-34 0-62-28-62-64 0-4 0-6 0-10-32-14-62-28-94-42-10 18-30 30-54 30-34 0-62-28-62-64zM64 220h98v-262h-98zM42 242v-306h140v306zM258 306h98v-348h-98zM236 328v-392h142v392zM474 470h98v-512h-98zM452 492v-556h140v556zM690 470h98v-512h-98zM668 492v-556h140v556zM896 634h96v-676h-96zM874 654v-718h140v718z" />
<glyph unicode="&#xe05b;" glyph-name="avvisi-c-istituzionale-n" d="M40 448c0 260 212 472 472 472s472-212 472-472c0-260-212-472-472-472s-472 212-472 472zM4 382l2-10c4-22 8-48 14-70 8-22 16-44 26-66l10-20 8-14c86-158 254-266 448-266h34c2 0 16 2 32 4s32 6 44 8c22 4 46 12 68 20 8 2 18 6 28 10 4 4 10 6 16 8 8 4 16 8 22 12l4 2c58 28 110 74 152 128 24 32 46 66 64 104s30 74 36 106c4 16 6 32 8 48 2 8 4 18 4 28v68c0 4-2 18-4 26v2c-4 28-8 56-16 82-26 78-64 144-110 196-32 36-68 68-110 94-74 46-162 74-256 78h-16c-96 0-186-26-264-74-80-48-150-118-196-212-28-56-46-118-50-184-2-8-2-14-2-20v-44l2-14zM276 452c0-16 14-30 30-30s28 12 30 26c16 8 34 16 48 24 6-6 14-10 22-10 16 0 28 14 28 30 0 4 0 8-2 12 18 14 36 30 54 46 4-4 12-8 18-8 10 0 18 6 24 12l46-20v-2c0-16 12-30 30-30 16 0 30 14 30 30 0 6-2 12-4 16 18 24 36 46 54 70 2 2 4 4 6 8 4-2 8-2 12-2 16 0 30 12 30 30 0 16-14 30-30 30s-30-14-30-30c0-6 2-12 4-16-20-26-40-52-60-78-4 2-8 4-12 4-10 0-18-6-24-12l-46 18c0 2 0 2 0 4 0 16-14 30-30 30s-30-14-30-30c0-4 0-6 2-8-18-14-34-32-52-46l-4-2c-4 4-8 4-14 4-18 0-30-12-30-30 0 0 0-2 0-4-14-6-30-14-44-20-6 8-14 14-26 14-16 0-30-12-30-30zM302 336h46v-124h-46zM292 346v-144h66v144zM394 376h46v-164h-46zM384 386v-184h66v184zM496 454h46v-242h-46zM486 464v-262h66v262zM600 454h46v-242h-46zM588 464v-262h68v262zM696 530h46v-318h-46zM686 540v-338h66v338zM478-64h34c-194 0-362 108-448 266 4-10 10-20 14-28 106-162 268-228 400-238zM2 412c0-10 0-20 2-30z" />
<glyph unicode="&#xe05c;" glyph-name="avvisi-c-istituzionale-s" d="M276 452c0 18 14 30 30 30 12 0 20-6 26-14 14 6 30 14 44 20 0 2 0 4 0 4 0 18 12 30 30 30 6 0 10 0 14-4l4 2c18 14 34 32 52 46-2 2-2 4-2 8 0 16 14 30 30 30s30-14 30-30c0-2 0-2 0-4l46-18c6 6 14 12 24 12 4 0 8-2 12-4 20 26 40 52 60 78-2 4-4 10-4 16 0 16 14 30 30 30s30-14 30-30c0-18-14-30-30-30-4 0-8 0-12 2-2-4-4-6-6-8-18-24-36-46-54-70 2-4 4-10 4-16 0-16-14-30-30-30-18 0-30 14-30 30v2l-46 20c-6-6-14-12-24-12-6 0-14 4-18 8-18-16-36-32-54-46 2-4 2-8 2-12 0-16-12-30-28-30-8 0-16 4-22 10-14-8-32-16-48-24-2-14-14-26-30-26s-30 14-30 30zM292 346h66v-144h-66zM384 386h66v-184h-66zM486 464h66v-262h-66zM588 464h68v-262h-68zM686 540h66v-338h-66zM0 448c0-282 230-512 512-512s512 230 512 512c0 282-230 512-512 512s-512-230-512-512zM302 336v-124h46v124zM394 376v-164h46v164zM496 454v-242h46v242zM600 454v-242h46v242zM696 530v-318h46v318z" />
<glyph unicode="&#xe05d;" glyph-name="avvisi-novita" d="M984 112c0-12-10-22-22-22-10 0-20 10-20 22v672c0 12 10 22 20 22 12 0 22-10 22-22zM902 142l-780 278v96l780 240zM482 200c-4-12-12-22-24-30-12-6-26-6-38-2l-86 30c-26 8-40 38-32 64l16 44 178-64zM82 406c0-12-10-22-20-22-12 0-22 10-22 22v126c0 12 10 22 22 22 10 0 20-10 20-22zM962 848c-28 0-52-20-58-48l-786-242c-10 22-32 38-56 38-34 0-62-30-62-64v-126c0-34 28-64 62-64 24 0 44 16 54 36l164-58-16-44c-16-50 10-102 58-118l84-30c24-8 48-6 70 6 22 10 38 30 46 54l12 40 368-132c8-28 32-48 60-48 34 0 62 28 62 64v672c0 36-28 64-62 64z" />
<glyph unicode="&#xe05e;" glyph-name="avvisi-c-novita-n" d="M40 448c0 260 212 472 472 472s472-212 472-472c0-260-212-472-472-472s-472 212-472 472zM4 382l2-10c4-22 8-48 14-70 8-22 16-44 26-66l10-20 8-14c86-158 254-266 448-266h34c2 0 16 2 32 4s32 6 44 8c22 4 46 12 68 20 8 2 18 6 28 10 4 4 10 6 16 8 8 4 16 8 22 12l4 2c58 28 110 74 152 128 24 32 46 66 64 104s30 74 36 106c4 16 6 32 8 48 2 8 4 18 4 28v68c0 4-2 18-4 26v2c-4 28-8 56-16 82-26 78-64 144-110 196-32 36-68 68-110 94-74 46-162 74-256 78h-16c-96 0-186-26-264-74-80-48-150-118-196-212-28-56-46-118-50-184-2-8-2-14-2-20v-44l2-14zM728 294c0-6-4-10-8-10-6 0-10 4-10 10v308c0 6 4 10 10 10 4 0 8-4 8-10zM690 308l-356 128v44l356 110zM498 334c-2-6-6-10-12-12-4-4-10-4-16-2l-40 14c-12 4-18 16-14 28l6 22 82-30zM314 428c0-4-4-8-8-8-6 0-10 4-10 8v58c0 6 4 10 10 10 4 0 8-4 8-10zM720 630c-14 0-26-8-28-20l-362-112c-4 10-14 18-24 18-16 0-30-14-30-30v-58c0-16 14-28 30-28 10 0 20 6 24 16l76-26-8-20c-8-24 4-48 26-56l40-12c10-4 22-4 32 2s16 14 20 24l6 20 170-62c2-12 14-20 28-20s28 12 28 28v308c0 16-14 28-28 28zM478-64h34c-194 0-362 108-448 266 4-10 10-20 14-28 106-162 268-228 400-238zM2 412c0-10 0-20 2-30z" />
<glyph unicode="&#xe05f;" glyph-name="avvisi-c-novita-s" d="M718 630c16 0 28-12 28-28v-308c0-16-12-28-28-28-14 0-24 8-28 20l-168 62-6-20c-4-10-10-18-20-24s-22-6-32-2l-40 12c-20 8-32 32-26 56l8 20-74 26c-6-10-14-16-26-16-16 0-28 12-28 28v58c0 16 12 30 28 30 12 0 22-8 26-18l358 112c4 12 14 20 28 20zM0 448c0-282 230-512 512-512s512 230 512 512c0 282-230 512-512 512s-512-230-512-512zM728 294v308c0 6-4 10-10 10s-10-4-10-10v-308c0-6 4-10 10-10s10 4 10 10zM690 308v282l-356-110v-44zM498 334l6 20-80 30-8-22c-4-12 2-24 14-28l40-14c6-2 12-2 18 2 4 2 8 6 10 12zM316 428v58c0 6-4 10-10 10s-10-4-10-10v-58c0-4 4-8 10-8s10 4 10 8z" />
<glyph unicode="&#xe060;" glyph-name="avvisi-urgente" d="M488 578h48c4 0 6-2 6-6v-300c0-4-2-8-6-8h-48c-4 0-8 4-8 8v300c0 4 4 6 8 6zM544 198v-54c0-4-2-8-8-8h-50c-4 0-6 4-6 8v54c0 4 2 8 6 8h50c6 0 8-4 8-8zM56 38l456 800 456-800zM1020 32l-490 856c-8 14-28 14-36 0l-492-860c-2-6-2-14 0-20 4-6 12-10 18-10h984c0 0 0 0 0 0 10 0 20 8 20 20 0 6-2 10-4 14z" />
<glyph unicode="&#xe061;" glyph-name="avvisi-c-urgente-n" d="M40 448c0 260 212 472 472 472s472-212 472-472c0-260-212-472-472-472s-472 212-472 472zM4 382l2-10c4-22 8-48 14-70 8-22 16-44 26-66l10-20 8-14c86-158 254-266 448-266h34c2 0 16 2 32 4s32 6 44 8c22 4 46 12 68 20 8 2 18 6 28 10 4 4 10 6 16 8 8 4 16 8 22 12l4 2c58 28 110 74 152 128 24 32 46 66 64 104s30 74 36 106c4 16 6 32 8 48 2 8 4 18 4 28v68c0 4-2 18-4 26v2c-4 28-8 56-16 82-26 78-64 144-110 196-32 36-68 68-110 94-74 46-162 74-256 78h-16c-96 0-186-26-264-74-80-48-150-118-196-212-28-56-46-118-50-184-2-8-2-14-2-20v-44l2-14zM304 262l208 362 208-362zM744 258l-224 390c-4 6-12 6-16 0l-224-390c-2-4-2-8 0-10 0-4 4-4 8-4h448c6 0 10 4 10 8 0 2 0 6-2 6zM502 508c-2 0-4-2-4-4v-136c0-2 2-4 4-4h20c2 0 4 2 4 4v136c0 2-2 4-4 4zM526 334c0 2 0 4-2 4h-24c-2 0-2-2-2-4v-24c0-2 0-4 2-4h24c2 0 2 2 2 4zM478-64h34c-194 0-362 108-448 266 4-10 10-20 14-28 106-162 268-228 400-238zM2 412c0-10 0-20 2-30z" />
<glyph unicode="&#xe062;" glyph-name="avvisi-c-urgente-s" d="M744 258c2 0 2-4 2-6 0-4-4-8-10-8h-448c-4 0-8 0-8 4-2 2-2 6 0 10l224 390c4 6 12 6 16 0zM0 448c0-282 230-512 512-512s512 230 512 512c0 282-230 512-512 512s-512-230-512-512zM304 262h416l-208 362zM502 508h20c2 0 4-2 4-4v-136c0-2-2-4-4-4h-20c-2 0-4 2-4 4v136c0 2 2 4 4 4zM526 334v-24c0-2 0-4-2-4h-24c-2 0-2 2-2 4v24c0 2 0 4 2 4h24c2 0 2-2 2-4z" />
<glyph unicode="&#xe063;" glyph-name="azioni-sostituisci" d="M874 386c-50 24-150 62-156 62-10 0-22-8-22-22 0-30 54-38 76-48 8-4 18-8 28-12-50-36-138-96-286-96-72 0-88 2-172 32-22 6-42 20-62 30-6 2-54 34-62 34-14 0-26-12-26-24 0-16 32-34 40-40 92-58 188-84 280-84 6 0 60 2 88 8 66 14 146 38 214 86l-36-90c4-14 12-24 24-24 28 0 34 46 46 68 10 22 18 46 28 70 4 10 10 24 10 28 0 6-2 18-12 22zM952 602h-150v168zM754 804v-230c0-12 28-20 30-22h190v-482h-288c-8 0-22-14-22-26 0-10 6-18 18-24h320c6 0 18 12 22 22v554c0 10-212 246-220 252-14 18-28 32-48 30h-230c-12 2-32-6-32-24 0-10 6-18 18-26h242M594 602h-170v156zM374 804v-230c0-12 30-20 32-22h188v-188c0-8 12-22 24-22 10 0 18 6 26 20v256c0 18-184 176-244 232-18 18-32 30-52 28h-314c-12 2-36-12-34-24v-810c0-8 14-20 20-24h600c30 0 24 52 24 62 0 12 8 58-26 58-12 0-20-6-24-22v-44h-542v752h296z" />
<glyph unicode="&#xe064;" glyph-name="azioni-sospendi" d="M890 2h-162v892h162zM666 960v-1024h286v1024zM134 894h162v-892h-162zM358-64v1024h-286v-1024z" />
<glyph unicode="&#xe065;" glyph-name="archivio-estrattoconto" d="M454 368c4 12 16 16 26 14l174-58c10-4 16-16 12-26-2-8-10-14-20-14-2 0-4 0-6 2l-172 56c-10 4-16 16-14 26zM466 720c0 12 10 20 20 20 4 0 14 0 22-8s8-20 0-28c-4-4-10-6-16-6-2 0-6 0-10 2-8 2-16 10-16 20zM426 578c2 0 12 0 20-8s8-22 0-30c-4-4-10-6-14-6s-8 0-10 2c-10 2-16 12-16 20 0 12 8 22 20 22zM590 688c2 12 14 18 26 16l172-48c10-2 16-14 14-26-2-8-10-14-20-14-2 0-4 0-6 0l-172 48c-10 2-18 14-14 24zM520 528c4 10 16 16 26 14l172-58c12-4 18-16 14-26-4-8-12-14-20-14-2 0-4 0-6 0l-172 58c-12 4-16 16-14 26zM382 418c8-8 8-22 0-30-4-4-8-6-14-6-4 0-8 2-10 4-10 2-16 10-16 20s8 20 20 20c4 0 12 0 20-8zM754 172c-54-146-88-182-124-192-38 4-68 20-90 44-52 64-40 170-40 172 2 8-4 18-12 22l-266 106 208 592 546-108c-30-90-144-426-222-636zM146 148c0 0-2 0-2 0-6 2-126 42-100 204l414-168c-2-34 0-122 48-182-98 34-254 100-360 146zM1022 834c-4 4-8 8-14 8l-588 118c-8 2-18-4-22-14l-214-606-146 60c-6 2-12 2-18-2-6-2-10-8-10-12-48-208 104-270 120-276 44-20 398-174 464-174 12 0 26 0 38 2 2 0 6 0 10 0 8 0 14 4 18 10 44 20 82 74 134 210 88 244 228 654 228 658 2 6 2 12 0 18z" />
<glyph unicode="&#xe066;" glyph-name="archivio-c-estrattoconto-n" d="M40 448c0 260 212 472 472 472s472-212 472-472c0-260-212-472-472-472s-472 212-472 472zM4 382l2-10c4-22 8-48 14-70 8-22 16-44 26-66l10-20 8-14c86-158 254-266 448-266h34c2 0 16 2 32 4s32 6 44 8c22 4 46 12 68 20 8 2 18 6 28 10 4 4 10 6 16 8 8 4 16 8 22 12l4 2c58 28 110 74 152 128 24 32 46 66 64 104s30 74 36 106c4 16 6 32 8 48 2 8 4 18 4 28v68c0 4-2 18-4 26v2c-4 28-8 56-16 82-26 78-64 144-110 196-32 36-68 68-110 94-74 46-162 74-256 78h-16c-96 0-186-26-264-74-80-48-150-118-196-212-28-56-46-118-50-184-2-8-2-14-2-20v-44l2-14zM636 304c-26-68-42-84-58-88-18 2-30 8-40 20-26 30-20 78-18 78 0 4-2 10-6 10l-122 50 94 272 252-50c-14-40-66-196-102-292zM356 292v0c-4 2-58 20-46 94l190-76c-2-16 0-56 22-84-46 16-118 46-166 66zM758 608c-2 2-4 4-6 4l-270 54c-4 0-8-2-10-6l-98-278-68 26c-2 2-6 2-8 0s-4-4-4-6c-22-96 48-124 54-126 20-10 184-80 214-80 6 0 12 0 16 0 2 0 4 0 6 0 4 0 6 2 8 4 20 10 38 34 62 98 40 112 104 300 104 302 2 2 2 6 0 8zM498 394c-2-4 0-10 6-12l80-26c0 0 2 0 2 0 4 0 8 2 8 6 2 4 0 10-6 12l-78 26c-6 2-10 0-12-6zM504 556c0-4 2-8 6-10 2 0 4 0 6 0s4 0 6 2c4 4 4 10 0 14s-8 4-10 4c-4 0-8-4-8-10zM484 490c-4 0-8-4-8-10-2-4 2-8 6-8 2-2 4-2 6-2s4 2 6 4c4 2 4 8 0 12s-8 4-10 4zM560 542c-2-6 2-10 6-12l80-22c0 0 2 0 2 0 4 0 8 2 10 6 0 6-2 10-8 12l-78 22c-6 2-10-2-12-6zM528 468c-2-6 2-10 6-12l80-26c0 0 2-2 2-2 4 0 8 4 10 8 0 4-2 10-6 12l-80 26c-4 2-10-2-12-6zM464 416c-4 4-8 4-8 4-6 0-10-4-10-8 0-6 4-10 8-10 0 0 2-2 4-2s4 2 6 4 4 8 0 12zM478-64h34c-194 0-362 108-448 266 4-10 10-20 14-28 106-162 268-228 400-238zM2 412c0-10 0-20 2-30z" />
<glyph unicode="&#xe067;" glyph-name="archivio-c-estrattoconto-s" d="M760 610c0-2 2-6 0-8 0-2-64-190-104-302-24-62-42-86-62-96-2-2-4-4-8-4-2 0-4 0-4 0-6 0-12 0-18 0-30 0-192 70-212 78-8 4-78 32-56 126 2 4 4 6 6 6 2 2 4 2 8 2l66-28 98 278c2 4 6 6 12 6l268-54c2 0 4-2 6-4zM0 448c0-282 230-512 512-512s512 230 512 512c0 282-230 512-512 512s-512-230-512-512zM638 308c34 96 88 250 100 290l-248 50-96-272 122-48c4-2 6-6 6-10 0 0-6-50 18-78 10-12 24-18 40-20 16 4 32 20 58 88zM500 398c2 4 8 6 12 4l80-26c4 0 6-6 6-12-2-4-6-6-10-6 0 0-2 0-2 0l-80 28c-4 0-8 6-6 12zM506 558c0 6 4 10 10 10 0 0 4 0 8-4s4-10 0-14c-2-2-4-2-6-2s-4 0-4 0c-4 2-8 6-8 10zM486 492c2 0 6 0 10-4 4-2 4-8 0-12-2-2-4-4-6-4s-4 2-4 2c-6 0-8 4-8 10 0 4 4 8 8 8zM562 544c2 4 6 8 12 6l78-22c6 0 8-6 8-10-2-6-6-8-10-8 0 0-2 0-2 0l-80 22c-4 2-8 6-6 12zM530 470c2 4 8 8 12 6l80-26c4-2 6-8 6-12-2-4-6-6-10-6 0 0-2 0-2 0l-80 26c-4 2-8 8-6 12zM468 420c2-4 2-10 0-14-2-2-4-2-8-2 0 0-2 0-4 0-4 2-8 6-8 10s4 10 10 10c2 0 6 0 10-4zM360 296c48-22 118-50 164-66-22 28-22 66-22 84l-188 76c-12-74 42-92 44-94z" />
<glyph unicode="&#xe068;" glyph-name="archivio-variazionevontratto" d="M600 8l-58 58v2l306 314 60-62zM948 426c-32 32-84 32-116 0l-14-14 2-2-310-316c-2-2-4-6-6-10l-34-122c-2-8 0-14 6-20 4-4 8-6 14-6 2 0 4 0 6 0l120 34c2 0 6 2 8 4l316 322c2 2 4 4 6 8l2 2c32 34 32 86 0 120zM492 890l212-216h-212zM732 632v-224c0-12 10-22 20-22 12 0 20 10 20 22v254l-292 298h-428v-984h340c10 0 20 10 20 22 0 10-10 20-20 20h-300v902h360v-288z" />
<glyph unicode="&#xe069;" glyph-name="archivio-c-variazionevontratto-n" d="M40 448c0 260 212 472 472 472s472-212 472-472c0-260-212-472-472-472s-472 212-472 472zM4 382l2-10c4-22 8-48 14-70 8-22 16-44 26-66l10-20 8-14c86-158 254-266 448-266h34c2 0 16 2 32 4s32 6 44 8c22 4 46 12 68 20 8 2 18 6 28 10 4 4 10 6 16 8 8 4 16 8 22 12l4 2c58 28 110 74 152 128 24 32 46 66 64 104s30 74 36 106c4 16 6 32 8 48 2 8 4 18 4 28v68c0 4-2 18-4 26v2c-4 28-8 56-16 82-26 78-64 144-110 196-32 36-68 68-110 94-74 46-162 74-256 78h-16c-96 0-186-26-264-74-80-48-150-118-196-212-28-56-46-118-50-184-2-8-2-14-2-20v-44l2-14zM564 228l-26 28 142 144 28-28zM726 420c-14 16-38 16-54 0l-6-6-142-146c-2-2-2-2-4-4l-14-56c-2-4 0-8 2-10s4-2 6-2c0 0 2 0 2 0l56 14c2 2 2 2 4 4l146 148c2 0 2 2 2 2l2 2c16 14 16 40 0 54zM514 634l98-100h-98zM626 516v-104c0-6 4-10 10-10 4 0 8 4 8 10v116l-134 138h-200v-452h158c6 0 10 4 10 10 0 4-4 10-10 10h-138v414h166v-132zM478-64h34c-194 0-362 108-448 266 4-10 10-20 14-28 106-162 268-228 400-238zM2 412c0-10 0-20 2-30z" />
<glyph unicode="&#xe06a;" glyph-name="archivio-c-variazionevontratto-s" d="M728 424c14-16 14-40 0-56h-2c0-2-2-4-2-4l-146-146c0-2-2-2-4-4l-56-14c0 0 0 0-2 0s-4 0-6 2c-2 2-4 6-2 10l16 56c0 0 0 2 2 4l142 144 6 8c14 14 38 14 54 0zM628 518h-130v130h-166v-412h140c4 0 8-4 8-8 0-6-4-10-8-10h-158v450h198l134-138v-116c0-4-4-8-8-8-6 0-10 4-10 8zM0 448c0-282 230-512 512-512s512 230 512 512c0 282-230 512-512 512s-512-230-512-512zM568 232l140 142-26 28-142-142v-2zM518 636v-100h98z" />
<glyph unicode="&#xe06b;" glyph-name="azioni-revoca" d="M348 486l-20-20 156-162-156-162 20-22 156 164 156-164 20 22-156 162 156 162-20 20-156-160zM602 960h-480v-1024h780v724zM614 890l218-216h-218zM860-24h-696v944h410v-288h286z" />
<glyph unicode="&#xe06c;" glyph-name="comuni-pdf" d="M594 960h-452c-6 2-20-10-20-16v-992c0-2 12-12 18-16h744c6 0 14 12 18 16v706c0 10-128 130-130 132-38 40-84 82-124 124-16 16-36 40-54 46zM834 668h-222v224zM572 918v0-272c0-2 10-14 16-16h272v-652h-696v940zM624 458v-236h38v102h56v30h-56v70h60v34zM498 252v176c4 0 8 0 10 0 34 0 48-30 48-84 0-72-24-92-48-92-4 0-6 0-10 0zM462 454v-232c8 0 20-2 34-2 30 0 52 8 68 24 18 18 30 50 30 100 0 46-12 78-30 94-14 14-34 20-62 20-16 0-30-2-40-4zM348 344v82c2 2 8 2 12 2 26 0 34-18 34-40 0-28-12-44-38-44-4 0-6 0-8 0zM310 454v-232h38v92c4 0 6 0 10 0 20 0 42 8 56 24 12 12 18 28 18 52 0 20-6 38-18 50-14 14-34 18-60 18-16 0-32-2-44-4z" />
<glyph unicode="&#xe06d;" glyph-name="comuni-c-pdf-n" d="M40 448c0 260 212 472 472 472s472-212 472-472c0-260-212-472-472-472s-472 212-472 472zM4 382l2-10c4-22 8-48 14-70 8-22 16-44 26-66l10-20 8-14c86-158 254-266 448-266h34c2 0 16 2 32 4s32 6 44 8c22 4 46 12 68 20 8 2 18 6 28 10 4 4 10 6 16 8 8 4 16 8 22 12l4 2c58 28 110 74 152 128 24 32 46 66 64 104s30 74 36 106c4 16 6 32 8 48 2 8 4 18 4 28v68c0 4-2 18-4 26v2c-4 28-8 56-16 82-26 78-64 144-110 196-32 36-68 68-110 94-74 46-162 74-256 78h-16c-96 0-186-26-264-74-80-48-150-118-196-212-28-56-46-118-50-184-2-8-2-14-2-20v-44l2-14zM544 706v0-150c0 0 6-6 10-8h146v-360h-376v518zM686 570h-120v122zM556 730h-244c-2 0-10-6-10-10v-544c0-2 6-8 10-10h400c4 0 8 8 10 10v388c0 4-68 72-70 72-20 22-44 46-66 68-10 10-20 22-30 26zM404 452v-128h20v50c2 0 2 0 6 0 10 0 22 4 30 14 6 6 8 16 8 28s-2 22-10 28c-6 8-18 10-32 10-8 0-16-2-22-2zM424 392v44c2 0 4 0 6 0 14 0 18-10 18-22 0-14-6-24-20-24-2 0-4 0-4 2zM484 452v-128c6 0 12-2 20-2 16 0 28 6 36 14 10 10 16 26 16 54 0 26-6 44-16 52-8 8-18 12-32 12-10 0-18-2-24-2zM504 340v96c2 0 4 2 6 2 18 0 26-18 26-48 0-38-12-50-26-50-2 0-4 0-6 0zM572 454v-130h22v56h28v16h-28v40h32v18zM478-64h34c-194 0-362 108-448 266 4-10 10-20 14-28 106-162 268-228 400-238zM2 412c0-10 0-20 2-30z" />
<glyph unicode="&#xe06e;" glyph-name="comuni-c-pdf-s" d="M556 730c10-4 20-16 30-26 22-22 46-46 66-68 2 0 70-68 70-72v-388c-2-2-6-10-10-10h-400c-4 2-10 8-10 10v544c0 4 8 10 10 10zM4 382l2-10c4-22 8-48 14-70 8-22 16-44 26-66l10-20 8-14c86-158 254-266 448-266h34c2 0 16 2 32 4s32 6 44 8c22 4 46 12 68 20 8 2 18 6 28 10 4 4 10 6 16 8 8 4 16 8 22 12l4 2c58 28 110 74 152 128 24 32 46 66 64 104s30 74 36 106c4 16 6 32 8 48 2 8 4 18 4 28v68c0 4-2 18-4 26v2c-4 28-8 56-16 82-26 78-64 144-110 196-32 36-68 68-110 94-74 46-162 74-256 78h-16c-96 0-186-26-264-74-80-48-150-118-196-212-28-56-46-118-50-184-2-8-2-14-2-20v-44l2-14zM544 706h-220v-518h376v360h-146c-4 2-10 8-10 8v150zM404 452c6 0 14 2 22 2 14 0 26-2 32-10 8-6 10-16 10-28s-2-22-8-28c-8-10-20-14-30-14-4 0-4 0-6 0v-50h-20zM484 452c6 0 14 2 24 2 14 0 24-4 32-12 10-8 16-26 16-52 0-28-6-44-16-54-8-8-20-14-36-14-8 0-14 2-20 2zM572 454h54v-18h-32v-40h28v-16h-28v-56h-22zM424 392c0-2 2-2 4-2 14 0 20 10 20 24 0 12-4 22-18 22-2 0-4 0-6 0zM504 340c2 0 4 0 6 0 14 0 26 12 26 50 0 30-8 48-26 48-2 0-4-2-6-2zM686 570l-120 122v-122zM64 202c4-10 10-20 14-28 106-162 268-228 400-238h34c-194 0-362 108-448 266zM2 412c0-10 0-20 2-30z" />
<glyph unicode="&#xe06f;" glyph-name="vorrei-miinteressa" d="M512 214c-222 0-412 182-462 234 32 32 116 116 230 174-16-34-24-72-24-110 0-140 114-256 256-256s256 116 256 256c0 38-8 76-24 110 114-58 198-142 230-174-50-52-240-234-462-234zM352 652c50 18 104 30 160 30s110-12 160-30c34-38 54-88 54-140 0-118-96-212-214-212s-214 94-214 212c0 52 20 102 54 140zM1018 462c-8 10-228 262-506 262s-498-252-506-262c-8-8-8-20 0-28 8-10 228-262 506-262s498 252 506 262c8 8 8 20 0 28zM406 512c0-58 48-106 106-106s106 48 106 106c0 58-48 106-106 106s-106-48-106-106z" />
<glyph unicode="&#xe070;" glyph-name="vorrei-c-miinteressa-n" d="M40 448c0 260 212 472 472 472s472-212 472-472c0-260-212-472-472-472s-472 212-472 472zM4 382l2-10c4-22 8-48 14-70 8-22 16-44 26-66l10-20 8-14c86-158 254-266 448-266h34c2 0 16 2 32 4s32 6 44 8c22 4 46 12 68 20 8 2 18 6 28 10 4 4 10 6 16 8 8 4 16 8 22 12l4 2c58 28 110 74 152 128 24 32 46 66 64 104s30 74 36 106c4 16 6 32 8 48 2 8 4 18 4 28v68c0 4-2 18-4 26v2c-4 28-8 56-16 82-26 78-64 144-110 196-32 36-68 68-110 94-74 46-162 74-256 78h-16c-96 0-186-26-264-74-80-48-150-118-196-212-28-56-46-118-50-184-2-8-2-14-2-20v-44l2-14zM574 594c-46 10-34 8-66 8-60 0-114-16-176-54-26-14-60-38-84-64-20-18-28-18-28-34 0-4 0-8 2-12 32-36 72-64 106-84 22-16 46-28 68-36 12-4 28-12 44-14 28-6 34-8 42-8 6 0 12 0 28 0 74 0 142 26 218 82 8 8 70 52 70 72 0 24-100 90-106 96-26 16-56 28-78 38-14 4-28 8-40 10zM596 550c10-6 12-18 16-26 4-10 8-28 8-40 0-64-54-106-110-106-4 0-20 2-28 4-46 4-84 60-84 88v26c2 18 10 38 24 54 2 2 6 2 10 4 26 6 52 12 76 12 22 0 74-6 88-16zM360 484c0-86 76-146 148-146 80 0 152 64 152 146 0 4-4 28-8 40 32-18 68-40 104-74-78-74-168-118-248-118s-172 46-246 118c34 34 70 56 104 76-4-12-6-30-6-42zM568 482c0 32-26 58-60 58-32 0-58-26-58-58 0-30 26-56 58-56 34 0 60 26 60 56zM478-64h34c-194 0-362 108-448 266 4-10 10-20 14-28 106-162 268-228 400-238zM2 412c0-10 0-20 2-30z" />
<glyph unicode="&#xe071;" glyph-name="vorrei-c-miinteressa-s" d="M574 594c12-2 26-6 40-10 22-10 52-22 78-38 6-6 106-72 106-96 0-20-62-64-70-72-76-56-144-82-218-82-16 0-22 0-28 0-8 0-14 2-42 8-16 2-32 10-44 14-22 8-46 20-68 36-34 20-74 48-106 84-2 4-2 8-2 12 0 16 8 16 28 34 24 26 58 50 84 64 62 38 116 54 176 54 32 0 20 2 66-8zM4 382l2-10c4-22 8-48 14-70 8-22 16-44 26-66l10-20 8-14c86-158 254-266 448-266h34c2 0 16 2 32 4s32 6 44 8c22 4 46 12 68 20 8 2 18 6 28 10 4 4 10 6 16 8 8 4 16 8 22 12l4 2c58 28 110 74 152 128 24 32 46 66 64 104s30 74 36 106c4 16 6 32 8 48 2 8 4 18 4 28v68c0 4-2 18-4 26v2c-4 28-8 56-16 82-26 78-64 144-110 196-32 36-68 68-110 94-74 46-162 74-256 78h-16c-96 0-186-26-264-74-80-48-150-118-196-212-28-56-46-118-50-184-2-8-2-14-2-20v-44l2-14zM596 550c-14 10-66 16-88 16-24 0-50-6-76-12-4-2-8-2-10-4-14-16-22-36-24-54v-26c0-28 38-84 84-88 8-2 24-4 28-4 56 0 110 42 110 106 0 12-4 30-8 40-4 8-6 20-16 26zM568 482c0-30-26-56-60-56-32 0-58 26-58 56 0 32 26 58 58 58 34 0 60-26 60-58zM360 484c0 12 2 30 6 42-34-20-70-42-104-76 74-72 166-118 246-118s170 44 248 118c-36 34-72 56-104 74 4-12 8-36 8-40 0-82-72-146-152-146-72 0-148 60-148 146zM64 202c4-10 10-20 14-28 106-162 268-228 400-238h34c-194 0-362 108-448 266zM2 412c0-10 0-20 2-30z" />
<glyph unicode="&#xe072;" glyph-name="vorrei-investimenti" d="M666-32h-308v578h310zM400 10h226v496h-226zM310-32h-310v332h310zM40 10h228v250h-228zM1024-32h-310v870h310zM756 10h228v786h-228zM444 684c-12 0-20 8-20 20v180h-180c-12 0-20 8-20 20s8 22 20 22h220v-222c0-10-8-20-20-20zM20 460c-6 0-10 2-14 6-8 8-8 20 0 30l402 402c8 8 20 8 28 0s8-20 0-28l-402-404c-4-4-8-6-14-6z" />
<glyph unicode="&#xe073;" glyph-name="vorrei-c-investimenti-n" d="M40 448c0 260 212 472 472 472s472-212 472-472c0-260-212-472-472-472s-472 212-472 472zM4 382l2-10c4-22 8-48 14-70 8-22 16-44 26-66l10-20 8-14c86-158 254-266 448-266h34c2 0 16 2 32 4s32 6 44 8c22 4 46 12 68 20 8 2 18 6 28 10 4 4 10 6 16 8 8 4 16 8 22 12l4 2c58 28 110 74 152 128 24 32 46 66 64 104s30 74 36 106c4 16 6 32 8 48 2 8 4 18 4 28v68c0 4-2 18-4 26v2c-4 28-8 56-16 82-26 78-64 144-110 196-32 36-68 68-110 94-74 46-162 74-256 78h-16c-96 0-186-26-264-74-80-48-150-118-196-212-28-56-46-118-50-184-2-8-2-14-2-20v-44l2-14zM480 560c6 0 10 4 10 10v104h-104c-6 0-10-4-10-10s4-10 10-10h70l-182-184c-4-4-4-8 0-12 2-2 4-4 6-4 4 0 6 2 8 4l182 184v-72c0-6 4-10 10-10zM626 242v370h108v-370zM752 222v410h-144v-410zM290 242v118h108v-118zM416 222v156h-144v-156zM460 242v234h106v-234zM584 222l2 272h-146v-272zM478-64h34c-194 0-362 108-448 266 4-10 10-20 14-28 106-162 268-228 400-238zM2 412c0-10 0-20 2-30z" />
<glyph unicode="&#xe074;" glyph-name="vorrei-c-investimenti-s" d="M584 222h-144v272h146zM416 222h-144v156h144zM752 222h-144v410h144zM280 454c-2 0-4 2-6 4-4 4-4 8 0 12l182 184h-70c-6 0-10 4-10 10s4 10 10 10h104v-104c0-6-4-10-10-10s-10 4-10 10v72l-182-184c-2-2-4-4-8-4zM0 448c0-282 230-512 512-512s512 230 512 512c0 282-230 512-512 512s-512-230-512-512zM460 242h106v234h-106zM290 242h108v118h-108zM626 242h108v370h-108z" />
<glyph unicode="&#xe075;" glyph-name="vorrei-assicurazioni" d="M532 892v38c0 10-10 20-20 20s-20-8-20-20v-36c-262-10-476-192-492-426h52c20 48 78 80 142 80 66 0 124-32 144-80h38c20 40 64 70 116 78v-504c0-28-24-50-52-50s-50 22-50 48h-42c0-50 44-94 94-94 52 0 94 44 94 94-2 4-2 6-4 8v498c54-6 98-36 120-78h38c20 48 80 80 144 80 66 0 122-32 142-80h48c-16 234-230 416-492 424zM830 588c-68 0-128-30-164-74-36 42-90 70-156 72-64-2-120-30-156-72-34 44-96 74-164 74-52 0-104-20-138-50 54 180 238 316 460 316s406-132 456-312c-34 28-84 46-138 46z" />
<glyph unicode="&#xe076;" glyph-name="vorrei-c-assicurazioni-n" d="M40 448c0 260 212 472 472 472s472-212 472-472c0-260-212-472-472-472s-472 212-472 472zM4 382l2-10c4-22 8-48 14-70 8-22 16-44 26-66l10-20 8-14c86-158 254-266 448-266h34c2 0 16 2 32 4s32 6 44 8c22 4 46 12 68 20 8 2 18 6 28 10 4 4 10 6 16 8 8 4 16 8 22 12l4 2c58 28 110 74 152 128 24 32 46 66 64 104s30 74 36 106c4 16 6 32 8 48 2 8 4 18 4 28v68c0 4-2 18-4 26v2c-4 28-8 56-16 82-26 78-64 144-110 196-32 36-68 68-110 94-74 46-162 74-256 78h-16c-96 0-186-26-264-74-80-48-150-118-196-212-28-56-46-118-50-184-2-8-2-14-2-20v-44l2-14zM668 516c-34 0-62-14-80-36-18 22-44 34-76 36-32-2-60-14-78-36-16 22-46 36-80 36-26 0-50-8-68-24 28 88 118 154 226 154s198-64 224-152c-18 14-42 22-68 22zM522 666v18c0 4-4 10-10 10s-10-4-10-10v-18c-128-4-232-94-240-208h24c10 24 38 40 70 40s60-16 70-40h20c8 20 30 34 56 38v-246c0-14-12-26-26-26s-24 12-24 24h-20c0-24 20-46 46-46 24 0 44 22 44 46 0 4 0 248 0 248 26-2 48-18 58-38h20c10 24 38 40 70 40s60-16 70-40h22c-8 114-112 204-240 208zM478-64h34c-194 0-362 108-448 266 4-10 10-20 14-28 106-162 268-228 400-238zM2 412c0-10 0-20 2-30z" />
<glyph unicode="&#xe077;" glyph-name="vorrei-c-assicurazioni-s" d="M522 666c128-4 232-94 240-208h-22c-10 24-38 40-70 40s-60-16-70-40h-20c-10 20-32 36-58 38 0 0 0-246 0-248 0-24-20-46-44-46-26 0-46 22-46 46h20c0-12 10-24 24-24s26 12 26 26v246c-26-4-48-18-56-38h-20c-10 24-38 40-70 40s-60-16-70-40h-24c8 114 112 204 240 208v18c0 6 4 10 10 10s10-6 10-10zM0 448c0-282 230-512 512-512s512 230 512 512c0 282-230 512-512 512s-512-230-512-512zM668 516c26 0 50-8 68-22-26 88-116 152-224 152s-198-66-226-154c18 16 42 24 68 24 34 0 64-14 80-36 18 22 46 34 78 36 32-2 58-14 76-36 18 22 46 36 80 36z" />
</font>
</defs>
</svg>
